<?xml version="1.0" standalone="no"?>
<!DOCTYPE svg PUBLIC "-//W3C//DTD SVG 1.1//EN" "http://www.w3.org/Graphics/SVG/1.1/DTD/svg11.dtd" >
<!--
2016-5-9: Created with FontForge (http://fontforge.org)
-->
<svg xmlns="http://www.w3.org/2000/svg" xmlns:xlink="http://www.w3.org/1999/xlink" version="1.1">
<metadata>
Created by FontForge 20160405 at Mon May  9 06:59:40 2016
 By root
Copyright (c) 2016, root
</metadata>
<defs>
<font id="marketplace-glyphs" horiz-adv-x="512" >
  <font-face 
    font-family="marketplace-glyphs"
    font-weight="400"
    font-stretch="normal"
    units-per-em="512"
    panose-1="2 0 5 3 0 0 0 0 0 0"
    ascent="448"
    descent="-64"
    bbox="-37.7998 -66.4004 512.765 449.8"
    underline-thickness="25.6"
    underline-position="-51.2"
    unicode-range="U+0020-F166"
  />
    <missing-glyph />
    <glyph glyph-name="space" unicode=" " horiz-adv-x="200" 
 />
    <glyph glyph-name="uniF113" unicode="&#xf113;" 
d="M421.9 286c7 -11.5996 12.3994 -24.5 16.0996 -38.7998c10.2998 -2.10059 21.2998 -3.5 32.7002 -4.10059c11.5 -0.599609 22.2002 -2.69922 32 -6.2998c3.39941 -0.799805 5.09961 -2.7002 5.09961 -5.7002v-74.3994c0 -2.60059 -3.2002 -4.7998 -9.2998 -6.7998
c-6.2998 -2.10059 -13.5 -3.60059 -21.5996 -4.90039c-8.2002 -1.2998 -16.2002 -2.2002 -24 -2.7998c-7.7002 -0.600586 -12.9004 -1.2002 -15.5 -1.5c-3 -12 -7.90039 -24.4004 -14.8008 -37c11.6006 -17.2998 24.4004 -33.7998 38.2002 -49.6006l1.90039 -4.7998
c0 -1.7002 -2.7998 -5.7002 -8.60059 -12.0996c-5.7998 -6.40039 -12.3994 -13.2998 -19.6992 -20.7002c-7.40039 -7.2998 -14.4004 -13.9004 -21 -19.7002c-6.7002 -5.7998 -11 -8.59961 -12.8008 -8.59961c-0.5 0 -3.19922 1.89941 -8.39941 5.7998
s-10.9004 8.2002 -17.1006 13c-6.19922 4.59961 -12.0996 9.2998 -17.6992 13.5c-5.60059 4.40039 -9.10059 7 -10.6006 7.7002c-6.2002 -3.40039 -12.2998 -6.2002 -18.5996 -8.60059c-6.2002 -2.39941 -12.4004 -4.5 -18.7002 -6.19922
c-0.400391 -2.60059 -1 -7.7002 -1.7002 -15.6006c-0.799805 -8 -1.7002 -16 -3 -24.0996c-1.2998 -8.10059 -2.7998 -15.2998 -4.5 -21.9004c-1.7002 -6.59961 -3.89941 -9.7998 -6.59961 -9.7998h-74.9004c-3 0 -5 1.7998 -6 5.40039c-3 10.2998 -5 21.0996 -6 32.5
c-1.09961 11.2998 -2.2002 22.1992 -3.5 32.5996c-12.8994 3.7002 -25.2002 9 -36.8994 15.7002c-8.7002 -6.60059 -17.2002 -12.9004 -25.6006 -19.1006c-8.39941 -6.19922 -16.7002 -12.7998 -24.8994 -19.6992l-3.80078 -1.30078
c-1.2998 0 -5.19922 2.80078 -11.6992 8.60059s-13.3008 12.3994 -20.4004 19.7002c-7.09961 7.5 -13.5 14.2998 -19.2998 20.6992c-5.7998 6.40039 -8.7002 10.4004 -8.7002 12.1006c0 0.5 1.7002 3.2002 5.09961 8.39941c3.40039 5.2002 7.30078 10.8008 11.9004 16.9004
c4.5 6.2002 9 12 13.2998 17.5c4.2998 5.7002 7.10059 9.2998 8.40039 10.9004c-7 11.5996 -12.2998 24.5 -16.1006 38.8994c-10.7998 2.10059 -21.6992 3.40039 -33 4c-11.2998 0.600586 -21.7998 2.7998 -31.6992 6.2998
c-3.40039 0.900391 -5.10059 2.80078 -5.10059 5.80078v74.3994c0 2.60059 3.2002 4.7998 9.60059 6.7998c6.39941 2 13.5996 3.7002 21.5996 4.90039s15.7998 2.2998 23.4004 2.7998c7.59961 0.600586 12.5996 1.2002 15.1992 1.60059
c3.80078 12.7998 8.90039 25.0996 15.5 36.8994c-11.5996 17.2998 -24.1992 33.7998 -37.8994 49.6006l-2.2002 4.69922c0 1.7002 2.90039 5.80078 8.7998 12.2002c5.90039 6.40039 12.5 13.2998 19.7002 20.7002c7.2998 7.2998 14.2998 13.9004 21 19.7002
s10.9004 8.7998 12.5996 8.7998c0.400391 0 3.2002 -2 8.40039 -5.90039c5.2002 -3.89941 10.9004 -8.19922 17.2002 -12.8994c6.2998 -4.7998 12.2998 -9.2998 17.7998 -13.6006c5.59961 -4.2998 9 -6.89941 10.2998 -7.69922c6.10059 3.2998 12.2998 6.09961 18.5 8.39941
c6.2002 2.2002 12.6006 4.2998 19.1006 6.40039c0 2.5 0.299805 7.7002 0.899414 15.5c0.600586 7.7002 1.60059 15.7002 2.7998 23.5996c1.30078 8 2.90039 15.2998 4.90039 21.7998c2 6.40039 4.2998 9.7002 6.7998 9.7002h74.9004c2.89941 0 5 -1.5 6 -4.7002
c2.5 -10.2998 4.39941 -21.0996 5.39941 -32.5c1 -11.3994 2.60059 -22.5 4.40039 -33.5c6.5 -1.69922 12.7998 -3.69922 18.7998 -6c6.10059 -2.2998 12 -5.2998 17.9004 -8.7998c1.7002 1.2002 5.2002 4.10059 10.7002 8.40039s11.2998 8.7998 17.5 13.5996
c6.19922 4.7002 11.8994 8.90039 16.7998 12.6006c5 3.69922 8.09961 5.5 9.2998 5.5s5.2002 -3 11.7002 -8.80078c6.59961 -5.7998 13.3994 -12.3994 20.5 -19.6992c7.2002 -7.30078 13.5996 -14.3008 19.3994 -20.7002c5.80078 -6.40039 8.7002 -10.5 8.7002 -12.2002
c0 -0.799805 -1.89941 -3.90039 -5.5 -9c-3.7002 -5.2002 -7.89941 -10.7998 -12.3994 -16.9004c-4.5 -6.09961 -9 -11.8994 -13.3008 -17.5c-4.19922 -5.39941 -6.7998 -8.89941 -7.69922 -10.0996zM256.4 118.3c10.2998 0 20.0996 2.10059 29.2998 6.2002
c9.2998 4.09961 17.2998 9.7002 24 16.5996c6.59961 7 12 14.9004 16.0996 24.2002c4.10059 9.2998 6.10059 19.1006 6.10059 29.2998c0 10.3008 -2.10059 20 -6.10059 29.1006c-4.09961 9 -9.5 17 -16.0996 24c-6.7002 7 -14.7002 12.3994 -24 16.2002
c-9.2998 3.89941 -19 5.89941 -29.2998 5.89941c-10.3008 0 -20.2002 -2 -29.5 -5.89941c-9.40039 -3.90039 -17.5 -9.30078 -24.3008 -16.2002c-6.7998 -7 -12.1992 -15 -16.0996 -24c-3.90039 -9.10059 -5.7998 -18.7998 -5.7998 -29.1006
c0 -10.2998 1.89941 -20.0996 5.7998 -29.2998c3.90039 -9.2998 9.2998 -17.2998 16.0996 -24.2002c6.80078 -7 14.9004 -12.5 24.3008 -16.5996c9.2998 -4.2002 19.1992 -6.2002 29.5 -6.2002z" />
    <glyph glyph-name="uniF112" unicode="&#xf112;" 
d="M11.9463 192c0 1.70703 1.70703 5.12012 3.41406 6.82715l124.586 124.586c1.70703 1.70703 3.41406 3.41406 6.82715 3.41406c1.70703 0 5.12012 -1.70703 6.82617 -3.41406l13.6533 -13.6533c1.70703 -1.70605 3.41406 -3.41309 3.41406 -6.82617l-6.82715 -6.82715
l-104.106 -104.106l104.106 -104.106c1.70703 -1.70703 3.41309 -3.41309 3.41309 -6.82715c0 -1.70605 -1.70605 -5.12012 -3.41309 -6.82617l-13.6533 -13.6533c-1.70605 -1.70703 -3.41309 -3.41406 -6.82617 -3.41406c-3.41406 0 -5.12012 1.70703 -6.82715 3.41406
l-124.587 124.586c1.70703 1.70703 0 5.12012 0 6.82715zM189.44 24.7471l100.693 344.746c0 1.70703 1.70605 3.41309 3.41309 5.12012c1.70605 1.70703 3.41309 1.70703 6.82617 0l17.0674 -5.12012c1.70605 0 3.41309 -1.70605 5.11914 -3.41309
c1.70703 -1.70703 1.70703 -3.41309 0 -6.82715l-100.693 -344.746c0 -1.70703 -1.70605 -3.41309 -3.41309 -5.12012c-1.70605 -1.70703 -3.41309 -1.70703 -6.82617 0l-17.0674 5.12012c-1.70605 0 -3.41309 1.70605 -5.11914 3.41309v6.82715zM344.747 81.0664
c0 1.70703 1.70605 5.12012 3.41309 6.82715l104.106 104.106l-104.106 104.106c-1.70703 1.70703 -3.41309 3.41309 -3.41309 6.82715c0 1.70605 1.70605 5.12012 3.41309 6.82617l13.6533 13.6533c1.70605 1.70703 3.41309 3.41406 6.82617 3.41406
c3.41406 0 5.12012 -1.70703 6.82715 -3.41406l124.587 -124.586c1.70605 -1.70703 3.41309 -3.41406 3.41309 -6.82715c0 -1.70703 -1.70703 -5.12012 -3.41309 -6.82715l-124.587 -124.586c-1.70703 -1.70703 -3.41309 -3.41406 -6.82715 -3.41406
c-1.70605 0 -5.12012 1.70703 -6.82617 3.41406l-13.6533 13.6533c-1.70703 1.70605 -3.41309 5.12012 -3.41309 6.82617z" />
    <glyph glyph-name="uniF154" unicode="&#xf154;" 
d="M365.2 152.7l79.2998 77.2002l-130.3 19.0996l-9.2998 18.5l-49.1006 99.4004v-297.301l18.2002 -9.59961l98.2002 -51.9004l-18.5 109.601l-3.7002 20.3994zM504.7 233.5l-112.101 -109.2l26.6006 -154.399c1 -6.80078 0.399414 -12.1006 -1.90039 -15.9004
s-5.7998 -5.7002 -10.5 -5.7002c-3.5 0 -7.59961 1.2002 -12.2998 3.7002l-138.6 72.9004l-138.7 -72.9004c-4.7002 -2.5 -8.90039 -3.7002 -12.2998 -3.7002c-4.7002 0 -8.2002 1.90039 -10.5 5.7002c-2.30078 3.7998 -2.90039 9.09961 -1.90039 15.9004l26.5996 154.399
l-112.399 109.2c-6.60059 6.59961 -9 12.7002 -7.10059 18.4004c1.80078 5.69922 7.40039 9.19922 16.7002 10.6992l155 22.5l69.5 140.5c4.10059 8.40039 9.2002 12.7002 15.1006 12.7002c5.7998 0 10.7998 -4.2002 15.0996 -12.7002l69.5 -140.5l155 -22.5
c9.2998 -1.39941 14.7998 -5 16.7002 -10.6992c1.7998 -5.60059 -0.700195 -11.8008 -7.5 -18.4004z" />
    <glyph glyph-name="uniF11A" unicode="&#xf11a;" 
d="M255.3 448.7c141.5 0 256.3 -114.7 256.2 -256.2c0 -141.5 -114.7 -256.2 -256.2 -256.2s-256.2 114.7 -256.2 256.2s114.7 256.2 256.2 256.2zM255.3 -29.5996c122.5 0 222.101 99.5996 222.101 222.1s-99.7002 222.1 -222.101 222.1
c-122.399 0 -222.1 -99.5996 -222.1 -222.1s99.5996 -222.1 222.1 -222.1zM323.6 277.9h-51.0996v-68.3008h17.0996c20.7002 0 51.3008 -13.6992 51.3008 -51.2998v-34.2002c0 -37.6992 -30.7002 -51.2998 -51.3008 -51.2998h-17.0996v-17.0996
c0 -9.40039 -7.7002 -17.1006 -17.0996 -17.1006c-9.40039 0 -17.1006 7.7002 -17.1006 17.1006v17.0996h-51.2998c-9.40039 0 -17.0996 7.7002 -17.0996 17.1006c0 9.39941 7.69922 17.0996 17.0996 17.0996h51.0996v68.2998h-17.0996
c-20.7002 0 -51.2998 13.7002 -51.2998 51.2998v34.2002c0 37.7002 30.7002 51.2998 51.2998 51.2998h17.0996v17.1006c0 9.39941 7.7002 17.0996 17.1006 17.0996c9.39941 0 17.0996 -7.7002 17.0996 -17.0996v-17.1006h51.2998
c9.40039 0 17.1006 -7.69922 17.1006 -17.0996s-7.7002 -17.0996 -17.1006 -17.0996zM238.2 209.6v68.4004h-17.1006c-7.69922 -0.200195 -17.0996 -3.40039 -17.0996 -17.0996v-34.2002c0 -13.7998 9.40039 -16.9004 17.0996 -17.1006h17.1006zM289.5 175.4
l-17.0996 -0.100586v-68.2998h17.0996c7.7002 0.200195 17.0996 3.40039 17.0996 17.0996v34.2002c0 13.7998 -9.39941 16.9004 -17.0996 17.1006z" />
    <glyph glyph-name="uniF11C" unicode="&#xf11c;" 
d="M414 444c40.5 -22.5996 104.7 -269.1 35.5996 -392.9c-59.6992 -107.3 -195.1 -145.8 -302.3 -86.0996c-107.3 59.7002 -147.399 195.9 -86.0996 302.2c12.3994 21.5 31 41.2998 35.5 45.7998c2.2002 2.2002 14.5996 -5.59961 10.7998 -11.9004
c-20.2998 -71 -10.7002 -120.199 13.7002 -166.899c1.7002 -1 10.5996 -5 11.5996 -1.5c5.2998 145.899 81.5 236.8 171.7 298.5c51.5996 16 94.5 21.0996 109.5 12.7998z" />
    <glyph glyph-name="uniF125" unicode="&#xf125;" 
d="M256.5 443.9c140 0 253.4 -113.4 253.4 -253.4s-113.5 -253.4 -253.4 -253.4s-253.4 113.4 -253.4 253.4s113.4 253.4 253.4 253.4zM256.5 4.7002c102.5 0 185.8 83.2998 185.8 185.8s-83.2998 185.8 -185.8 185.8s-185.8 -83.2998 -185.8 -185.8
s83.2998 -185.8 185.8 -185.8zM273.4 136.7c19.5996 -7 33.7998 -25.5 33.7998 -47.6006c0 -28 -22.7002 -50.6992 -50.7002 -50.6992s-50.7002 22.6992 -50.7002 50.6992c0 22.1006 14.2002 40.6006 33.7998 47.6006v87.5996c0 9.2998 7.60059 16.9004 16.9004 16.9004
s16.9004 -7.60059 16.9004 -16.9004v-87.5996zM188.9 308.8c9.39941 0 16.8994 -7.59961 16.8994 -16.8994c0 -9.40039 -7.59961 -16.9004 -16.8994 -16.9004c-9.30078 0 -16.9004 7.5 -16.9004 16.9004c0 9.2998 7.59961 16.8994 16.9004 16.8994zM155.1 241.2
c9.40039 0 16.9004 -7.60059 16.9004 -16.9004c0 -9.39941 -7.59961 -16.8994 -16.9004 -16.8994c-9.2998 0 -16.8994 7.5 -16.8994 16.8994c0 9.2998 7.59961 16.9004 16.8994 16.9004zM256.5 308.8c-9.2998 0 -16.9004 7.5 -16.9004 16.9004
c0 9.2998 7.60059 16.8994 16.9004 16.8994s16.9004 -7.59961 16.9004 -16.8994c0 -9.40039 -7.60059 -16.9004 -16.9004 -16.9004zM324.1 308.8c9.30078 0 16.9004 -7.59961 16.9004 -16.8994c0 -9.40039 -7.59961 -16.9004 -16.9004 -16.9004
c-9.2998 0 -16.8994 7.5 -16.8994 16.9004c0 9.2998 7.59961 16.8994 16.8994 16.8994zM357.9 241.2c9.2998 0 16.8994 -7.60059 16.8994 -16.9004c0 -9.39941 -7.59961 -16.8994 -16.8994 -16.8994c-9.30078 0 -16.9004 7.5 -16.9004 16.8994
c0 9.2998 7.59961 16.9004 16.9004 16.9004z" />
    <glyph glyph-name="uniF12C" unicode="&#xf12c;" 
d="M106.9 172.9c-6.40039 6.2998 -9.60059 13.6992 -9.60059 22c0 8.2998 3.2002 15.5996 9.60059 21.7998l221.1 222.2c6.40039 6.2998 13.7998 9.5 22.5 9.5c8.5 0 16 -3.2002 22.4004 -9.5l32.8994 -32.9004c6.40039 -6.5 9.60059 -13.7998 9.60059 -22.5
c0 -8.59961 -3.2002 -15.9004 -9.60059 -22l-167.5 -168.1l167.4 -164.801c6.39941 -6.2998 9.59961 -13.5996 9.59961 -21.8994c0 -8.2002 -3.2002 -15.5 -9.59961 -21.9004l-32.9004 -33.5996c-6.39941 -6.2998 -13.8994 -9.5 -22.3994 -9.5
c-8.60059 0 -16.1006 3.2002 -22.5 9.5z" />
    <glyph glyph-name="uniF14B" unicode="&#xf14b;" 
d="M369.5 186zM137.5 186zM137.5 186zM256 417.5c124.54 0 225.5 -100.96 225.5 -225.5s-100.96 -225.5 -225.5 -225.5s-225.5 100.96 -225.5 225.5s100.96 225.5 225.5 225.5zM324.5 293.5c-19.3301 0 -35 -15.6699 -35 -35s15.6699 -35 35 -35s35 15.6699 35 35
s-15.6699 35 -35 35zM187.5 293.5c-19.3301 0 -35 -15.6699 -35 -35s15.6699 -35 35 -35s35 15.6699 35 35s-15.6699 35 -35 35zM256.001 150.242c-45.9951 0 -84.8252 -23.6113 -96.4053 -65.9844h192.811c-11.5801 42.373 -50.4092 65.9844 -96.4053 65.9844z
M160.958 365.33l74.9082 -43.249l-12.166 -21.0723l-74.9082 43.249zM160.593 366.695l-13.166 -22.8027l76.6387 -44.249l13.166 22.8027zM363.212 344.253l-74.9082 -43.249l-12.166 21.0723l74.9082 43.249zM364.577 343.888l-13.166 22.8027l-76.6387 -44.249
l13.166 -22.8027zM363.212 344.253l-74.9082 -43.249l-12.166 21.0723l74.9082 43.249zM364.577 343.888l-13.166 22.8027l-76.6387 -44.249l13.166 -22.8027zM160.775 366.013l-12.666 -21.9375l75.7734 -43.749l12.666 21.9375zM363.895 344.07l-12.666 21.9375
l-75.7734 -43.749l12.666 -21.9375z" />
    <glyph glyph-name="uniF15E" unicode="&#xf15e;" 
d="M224 12.2002c0 -6.7998 -5.40039 -12.2002 -12.2002 -12.2002h-71.5996c-6.7998 0 -12.2002 5.5 -12.2002 12.2002v359.7c0 6.69922 5.40039 12.0996 12.2002 12.0996h71.5996c6.7998 0 12.2002 -5.40039 12.2002 -12.0996v-359.7zM371.8 384
c6.7998 0 12.2002 -5.40039 12.2002 -12.0996v-359.7c0 -6.7998 -5.5 -12.2002 -12.2002 -12.2002h-71.5996c-6.7998 0 -12.2002 5.5 -12.2002 12.2002v359.7c0 6.69922 5.5 12.0996 12.2002 12.0996h71.5996z" />
    <glyph glyph-name="uniF158" unicode="&#xf158;" 
d="M488 302.4c12.7998 -54.4004 24 -112 24 -174.4s-6.40039 -121.6 -20.7998 -176c-72 -9.59961 -150.4 -16 -235.2 -16s-163.2 6.40039 -235.2 16c-12.7998 54.4004 -20.7998 113.6 -20.7998 176s6.40039 121.6 20.7998 176c52.7998 6.40039 110.4 12.7998 171.2 14.4004
l-97.5996 97.5996l32 32l128 -128h32l112 112l32 -32l-83.2002 -83.2002c49.5996 -3.2002 96 -8 140.8 -14.3994zM428.8 9.59961c9.60059 35.2002 16 75.2002 16 116.801c0 41.5996 -6.39941 81.5996 -16 116.8c-54.3994 8 -113.6 11.2002 -176 11.2002
c-62.3994 0 -121.6 -4.80078 -176 -11.2002c-9.59961 -35.2002 -16 -75.2002 -16 -116.8c0 -41.6006 6.40039 -81.6006 16 -116.801c54.4004 -8 113.601 -11.1992 176 -11.1992c62.4004 0 121.601 4.7998 176 11.1992z" />
    <glyph glyph-name="uniF14F" unicode="&#xf14f;" 
d="M169.9 40c0 -12.7002 -4.5 -23.4004 -13.5 -32.2998c-9 -8.90039 -19.7002 -13.2998 -32.1006 -13.2998c-12.7002 0 -23.3994 4.39941 -32.2998 13.2998c-8.90039 8.89941 -13.2998 19.7002 -13.2998 32.2998s4.39941 23.4004 13.2998 32.2998
c8.90039 8.90039 19.5996 13.2998 32.2998 13.2998c12.5 0 23.2002 -4.39941 32.1006 -13.2998c9 -8.7998 13.5 -19.5996 13.5 -32.2998zM306.6 -20.7002c0 -11.2002 -4 -20.7002 -11.8994 -28.5996c-7.90039 -7.90039 -17.5 -11.9004 -28.6006 -11.9004
c-11.1992 0 -20.6992 4 -28.5996 11.9004c-7.90039 7.89941 -11.9004 17.5 -11.9004 28.5996c0 11.2002 4 20.7002 11.9004 28.6006c7.90039 7.89941 17.5 11.8994 28.5996 11.8994c11.2002 0 20.7002 -4 28.6006 -11.8994c8 -7.90039 11.8994 -17.5 11.8994 -28.6006z
M114.2 181.9c0 -13.9004 -5 -25.9004 -14.9004 -35.8008c-9.89941 -9.89941 -21.7998 -14.8994 -35.7998 -14.8994c-13.9004 0 -25.9004 5 -35.7998 14.8994c-9.90039 9.90039 -14.9004 21.8008 -14.9004 35.8008s5 25.8994 14.9004 35.7998
c9.89941 9.89941 21.7998 14.8994 35.7998 14.8994c13.9004 0 25.9004 -5 35.7998 -14.8994c9.90039 -9.90039 14.9004 -21.9004 14.9004 -35.7998zM443.4 40c0 -9.7002 -3.5 -18 -10.4004 -25c-7 -7 -15.2998 -10.5 -25 -10.4004c-9.7002 0 -18.0996 3.5 -25 10.4004
s-10.4004 15.2998 -10.4004 25s3.5 18.0996 10.4004 25c7 6.90039 15.2998 10.4004 25 10.4004s18.0996 -3.5 25 -10.4004s10.4004 -15.2998 10.4004 -25zM180 323.7c0 -15.4004 -5.40039 -28.5 -16.2998 -39.4004c-10.9004 -10.8994 -24 -16.2998 -39.4004 -16.2998
c-15.3994 0 -28.5 5.40039 -39.3994 16.2998c-10.9004 10.9004 -16.3008 24 -16.3008 39.4004c0 15.3994 5.40039 28.5 16.3008 39.3994c10.8994 10.9004 24 16.3008 39.3994 16.3008c15.4004 0 28.5 -5.40039 39.4004 -16.3008
c10.8994 -10.8994 16.2998 -24 16.2998 -39.3994zM326.9 384.5c0 -16.9004 -5.90039 -31.2002 -17.7002 -43.0996c-11.7998 -11.9004 -26.2002 -17.7002 -43.1006 -17.7002c-16.8994 0 -31.1992 5.89941 -43.0996 17.7002
c-11.7998 11.7998 -17.7002 26.1992 -17.7002 43.0996s5.90039 31.2002 17.7002 43.0996c11.7998 11.8008 26.2002 17.7002 43.0996 17.7002c16.9004 0 31.2002 -5.89941 43.1006 -17.7002c11.8994 -11.7998 17.7002 -26.1992 17.7002 -43.0996zM499.1 181.9
c0 -8.40039 -3 -15.6006 -8.89941 -21.5c-5.90039 -5.90039 -13.1006 -8.90039 -21.5 -8.90039c-8.40039 0 -15.6006 3 -21.5 8.90039c-5.90039 5.89941 -8.90039 13.0996 -8.90039 21.5c0 8.39941 3 15.5996 8.90039 21.5c5.89941 5.89941 13.0996 8.89941 21.5 8.89941
c8.39941 0 15.5996 -3 21.5 -8.89941c6 -5.90039 8.89941 -13.1006 8.89941 -21.5zM433.3 323.7c0 -7 -2.5 -12.9004 -7.39941 -17.9004c-5 -5 -10.9004 -7.39941 -17.9004 -7.39941s-12.9004 2.5 -17.9004 7.39941c-5 5 -7.39941 10.9004 -7.39941 17.9004
s2.5 12.8994 7.39941 17.8994c5 5 10.9004 7.40039 17.9004 7.40039s12.9004 -2.5 17.9004 -7.40039c4.89941 -5 7.39941 -10.8994 7.39941 -17.8994z" />
    <glyph glyph-name="uniF136" unicode="&#xf136;" 
d="M257.7 39.9004l0.0996094 56.3994h11.9004c10.8994 -0.299805 12.2002 -7.09961 12.2002 -12.0996v-32.2002c0 -5.09961 -1.30078 -11.7998 -12.1006 -12.0996h-12.0996zM193.3 180.8c0 5 1.2998 11.7998 12.1006 12h12v-56.2998h-12
c-10.8008 0.299805 -12.1006 7.09961 -12.1006 12.0996v32.2002zM318.1 325.6c32.1006 -32.0996 160.9 -96.5 160.801 -257.5c0 -156.6 -36.5 -128.8 -225.301 -128.8c-197.399 0 -225.3 -32.0996 -225.3 128.8c0 160.9 128.8 225.301 161 257.5
c32.2002 32.2002 -64.3994 64.4004 -64.3994 96.6006s64.3994 32.2002 128.8 0c64.3994 32.2002 128.8 32.2002 128.8 0s-96.5996 -64.4004 -64.4004 -96.6006zM269.8 136.5h-12.0996v56.2998h44.2998c11 0 20.0996 9 20.0996 20.1006
c0 11.0996 -9 20.0996 -20.0996 20.0996h-44.2998v12.0996c0 11.1006 -9 20.1006 -20.1006 20.1006c-11.0996 0 -20.0996 -9 -20.0996 -20.1006v-12.0996h-12.0996c-21.1006 0 -52.3008 -13.9004 -52.3008 -52.2998v-32.2002c0 -38.4004 31.2002 -52.2998 52.3008 -52.2998
h12.0996v-56.2998h-44.2998c-11.1006 0 -20.1006 -9 -20.1006 -20.1006c0 -11.0996 9 -20.0996 20.1006 -20.0996h44.2998v-12.1006c0 -11.0996 9 -20.0996 20.0996 -20.0996c11 0 20.1006 9 20.1006 20.0996v12.1006h12.0996c21 0 52.2998 13.8994 52.2998 52.2998v32.2002
c0 38.3994 -31.2998 52.2998 -52.2998 52.2998z" />
    <glyph glyph-name="uniF121" unicode="&#xf121;" 
d="M507.5 271v-213.7c0 -18.5996 -6.7002 -34.5996 -20 -48c-13.4004 -13.3994 -29.2998 -20 -48 -20h-369.1c-18.6006 0 -34.6006 6.7002 -48 20c-13.4004 13.4004 -20 29.2998 -20 48v291.4c0 18.5996 6.69922 34.5996 20 48c13.3994 13.3994 29.2998 20 48 20h97.0996
c18.5996 0 34.5996 -6.7002 48 -20c13.4004 -13.4004 20 -29.2998 20 -48v-9.7002h204c18.5996 0 34.5996 -6.7002 48 -20c13.4004 -13.4004 20 -29.4004 20 -48z" />
    <glyph glyph-name="uniF116" unicode="&#xf116;" 
d="M373.5 445.6l104.5 -104.399v-402.9h-443.9v507.3h339.4zM382.8 391.5v-41h41zM446.2 -29.9004l0.0996094 348.7h-95.0996v95.1006h-285.4v-443.801h380.4zM97.5 287.1h63.4004v-63.3994h-63.4004v63.3994zM192.6 287.1h190.2v-63.3994h-190.2v63.3994zM97.5 192h63.4004
v-63.4004h-63.4004v63.4004zM192.6 192h190.2v-63.4004h-190.2v63.4004zM97.5 96.9004h63.4004v-63.4004h-63.4004v63.4004zM192.6 96.9004h190.2v-63.4004h-190.2v63.4004z" />
    <glyph glyph-name="uniF15D" unicode="&#xf15d;" 
d="M425.999 277.698l86.001 0.0107422v-284.263h-310.595l115.589 47.8877h147.139l0.0107422 188.503h-18.3193zM0 252.236l343.143 142.132l108.749 -262.604l-343.112 -142.132l-108.779 262.6v0.00488281zM134.682 52.1729l254.669 105.482l-72.1152 174.172
l-254.694 -105.487l72.1406 -174.162v-0.00488281z" />
    <glyph glyph-name="uniF144" unicode="&#xf144;" 
d="M267.4 34h-161.301c-4.5 0 -8.09961 3.59961 -8.09961 8.09961v161.2c0 3.2998 2 6.2002 5 7.5s6.5 0.600586 8.7998 -1.7998l160.601 -160.6c1.89941 -1.5 3.09961 -3.80078 3.09961 -6.40039c0 -4.40039 -3.59961 -8 -8.09961 -8zM114.2 50.2002h133.6l-133.6 133.6
v-133.6zM508.9 -49.5c1.89941 -1.5 3.09961 -3.7998 3.09961 -6.2998c0 -4.5 -3.59961 -8.10059 -8.09961 -8.10059h-495.801c-4.5 0 -8.09961 3.7002 -8.09961 8.10059v495.7c0 3.19922 2 6.19922 5 7.5c3 1.19922 6.5 0.5 8.7998 -1.80078zM16.2002 -47.7998
l467.6 -0.200195l-33.8994 33.9004l-9.7002 -9.7002c-1.5 -1.60059 -3.60059 -2.40039 -5.7002 -2.40039s-4.09961 0.799805 -5.7002 2.40039c-3.2002 3.2002 -3.2002 8.2998 0 11.5l9.7002 9.7002l-28.4004 28.3994l-22.8994 -22.8994
c-1.60059 -1.60059 -3.60059 -2.40039 -5.7002 -2.40039c-2 0 -4.09961 0.799805 -5.7002 2.40039c-3.2002 3.19922 -3.2002 8.2998 0 11.5l22.9004 22.8994l-26.4004 26.4004l-9.7002 -9.7002c-1.5 -1.5 -3.59961 -2.2998 -5.69922 -2.2998
c-2.10059 0 -4.10059 0.700195 -5.7002 2.2998c-3.2002 3.2002 -3.2002 8.2998 0 11.5l9.7002 9.7002l-28.4004 28.3994l-22.9004 -22.8994c-1.59961 -1.5 -3.59961 -2.2998 -5.69922 -2.2998c-2 0 -4.10059 0.699219 -5.7002 2.2998c-3.2002 3.2002 -3.2002 8.2998 0 11.5
l22.8994 22.8994l-26.3994 26.4004l-9.7002 -9.7002c-1.59961 -1.5 -3.59961 -2.2998 -5.7002 -2.2998c-2.09961 0 -4.09961 0.700195 -5.7002 2.2998c-3.19922 3.2002 -3.19922 8.2998 0 11.5l9.7002 9.7002l-28.3994 28.4004l-22.9004 -22.9004
c-1.59961 -1.5 -3.59961 -2.2998 -5.7002 -2.2998c-2.09961 0 -4.09961 0.700195 -5.7002 2.2998c-3.19922 3.2002 -3.19922 8.2998 0 11.5l22.7002 22.7998l-26.3994 26.4004l-9.7002 -9.7002c-1.60059 -1.5 -3.60059 -2.2998 -5.7002 -2.2998
s-4.09961 0.700195 -5.7002 2.2998c-3.2002 3.2002 -3.2002 8.2998 0 11.5l9.7002 9.7002l-28.4004 28.3994l-22.8994 -22.8994c-1.60059 -1.5 -3.60059 -2.2998 -5.7002 -2.2998s-4.09961 0.699219 -5.7002 2.2998c-3.2002 3.2002 -3.2002 8.2998 0 11.5l22.9004 22.8994
l-26.5 26.5l-9.7002 -9.69922c-1.59961 -1.5 -3.7002 -2.30078 -5.7002 -2.30078s-4.09961 0.800781 -5.7002 2.40039c-3.19922 3.09961 -3.19922 8.2002 0 11.4004l9.7002 9.69922l-28.3994 28.4004l-22.9004 -22.9004c-1.5 -1.5 -3.59961 -2.2998 -5.7002 -2.2998
c-2.09961 0 -4.09961 0.700195 -5.7002 2.2998c-3.19922 3.2002 -3.19922 8.30078 0 11.5l22.9004 22.9004l-26.5 26.5l-9.7002 -9.7002c-1.59961 -1.59961 -3.59961 -2.39941 -5.7002 -2.39941c-2 0 -4.09961 0.799805 -5.69922 2.39941
c-3.2002 3.10059 -3.2002 8.2002 0 11.4004l9.69922 9.7002l-33.8994 33.8994v-468.1z" />
    <glyph glyph-name="uniF117" unicode="&#xf117;" 
d="M308 446.3l142.8 -148.2v-360.6h-391.899v508.8h249.1zM314.7 380v-69.7998h67.2002zM100.2 -21.2002h309.399v300.4h-125.8v125.899h-183.6v-426.3zM125.1 132.2h46.6006c9.2002 0 16.5996 -2.60059 22.2998 -7.7998c5.7002 -5.2002 8.5 -12.6006 8.5 -22
c0 -8.10059 -2.5 -15.2002 -7.59961 -21.2002c-5.10059 -6 -12.8008 -9 -23.2002 -9h-32.5v-44h-14.1006v104zM179.8 117.9c-3.09961 1.5 -7.2998 2.19922 -12.7002 2.19922h-27.8994v-36.0996h27.7998c6.2998 0 11.4004 1.2998 15.2998 4
c3.90039 2.7002 5.90039 7.40039 5.90039 14.2002c0 7.7998 -2.7998 13 -8.40039 15.7002zM218.2 132.2h41.5996c14.1006 0 25.1006 -5.10059 32.9004 -15.2002c6.89941 -9.2002 10.3994 -20.9004 10.3994 -35.2002c0 -11.0996 -2.09961 -21 -6.19922 -30
c-7.2002 -15.7998 -19.6006 -23.7002 -37.3008 -23.7002h-41.5zM257.1 40.2002c4.7002 0 8.5 0.5 11.5 1.5c5.40039 1.7998 9.7002 5.39941 13.2002 10.5996c2.7002 4.2002 4.7002 9.60059 5.90039 16.2002c0.700195 3.90039 1 7.59961 1 10.9004
c0 12.8994 -2.5 22.8994 -7.5 30c-5 7.09961 -13.1006 10.6992 -24.2002 10.6992h-24.5v-79.8994h24.5996zM320.9 132.2h72.1992v-12.7998h-58.0996v-31.6006h51v-12.3994h-51v-47.3008h-14.0996v104.101z" />
    <glyph glyph-name="uniF118" unicode="&#xf118;" 
d="M307.8 445.3l142.3 -147.6v-359.2h-390.399v506.8h248.1zM314.5 379.2v-69.5h67zM100.8 -20.4004h308.2v299.2h-125.3v125.4h-182.9v-424.601zM135.1 132.5h41.7002c8.2002 0 14.9004 -2.2998 20 -7c5.10059 -4.7002 7.60059 -11.2002 7.60059 -19.7002
c0 -7.2998 -2.30078 -13.5996 -6.80078 -19c-4.5 -5.39941 -11.3994 -8.09961 -20.7998 -8.09961h-29.0996v-39.4004h-12.6006v93.2002zM184 119.7c-2.7998 1.2998 -6.59961 2 -11.4004 2h-24.8994v-32.2998h24.8994c5.60059 0 10.2002 1.19922 13.7002 3.59961
s5.2998 6.7002 5.2998 12.7002c0 6.89941 -2.59961 11.5 -7.59961 14zM226.1 69.4004c0.300781 -5.30078 1.5 -9.60059 3.60059 -12.9004c4 -6.2002 11.0996 -9.2998 21.2998 -9.2998c4.59961 0 8.7002 0.700195 12.5 2c7.2002 2.59961 10.9004 7.2998 10.9004 14.0996
c0 5.10059 -1.5 8.7002 -4.60059 10.7998c-3.09961 2.10059 -8 4 -14.5996 5.5l-12.2002 2.90039c-8 1.90039 -13.5996 3.90039 -17 6.09961c-5.7002 3.90039 -8.59961 9.7002 -8.59961 17.4004c0 8.40039 2.7998 15.2002 8.5 20.5996
c5.59961 5.40039 13.5996 8.10059 23.8994 8.10059c9.5 0 17.6006 -2.40039 24.2002 -7.10059c6.59961 -4.69922 10 -12.2998 10 -22.5996h-11.9004c-0.599609 5 -1.89941 8.7998 -3.89941 11.5c-3.7002 4.90039 -10 7.2998 -18.7998 7.2998
c-7.10059 0 -12.3008 -1.59961 -15.4004 -4.7002c-3.09961 -3.09961 -4.7002 -6.7998 -4.7002 -10.8994c0 -4.60059 1.7998 -7.90039 5.5 -10c2.40039 -1.40039 7.90039 -3 16.4004 -5.10059l12.7002 -3c6.09961 -1.39941 10.7998 -3.39941 14.0996 -5.89941
c5.7002 -4.40039 8.59961 -10.7002 8.59961 -19c0 -10.2998 -3.69922 -17.7002 -11 -22.1006c-7.2998 -4.39941 -15.7998 -6.69922 -25.5 -6.69922c-11.2998 0 -20.0996 3 -26.5 8.89941c-6.39941 5.90039 -9.5 13.7998 -9.39941 23.9004zM302.5 132.5h37.2002
c12.5996 0 22.3994 -4.5 29.3994 -13.5996c6.2002 -8.2002 9.30078 -18.7002 9.30078 -31.5c0 -9.90039 -1.80078 -18.8008 -5.5 -26.8008c-6.5 -14.0996 -17.6006 -21.1992 -33.4004 -21.1992h-37.0996zM337.2 50.0996c4.2002 0 7.59961 0.400391 10.2998 1.30078
c4.7998 1.59961 8.7002 4.7998 11.7998 9.5c2.40039 3.7998 4.2002 8.59961 5.2998 14.5c0.600586 3.5 0.900391 6.7998 0.900391 9.7998c0 11.5 -2.2002 20.5 -6.7002 26.8994c-4.5 6.40039 -11.7002 9.60059 -21.7002 9.60059h-21.8994v-71.5h22v-0.100586z" />
    <glyph glyph-name="uniF14A" unicode="&#xf14a;" 
d="M369.5 186zM137.5 186zM137.5 186zM256 417.5c124.54 0 225.5 -100.96 225.5 -225.5s-100.96 -225.5 -225.5 -225.5s-225.5 100.96 -225.5 225.5s100.96 225.5 225.5 225.5zM286.012 288.487c-4.57715 -4.46875 -6.86328 -10.666 -6.8623 -18.5928
c0 -2.41309 0.422852 -4.89941 1.26953 -7.45801s1.81152 -4.73828 2.8916 -6.53906c1.08105 -1.80273 2.30566 -3.55957 3.67578 -5.27051c1.36914 -1.71191 2.36914 -2.8916 3 -3.54004c0.629883 -0.647461 1.125 -1.11719 1.48535 -1.40527l33.7256 -32.5352
c0.648438 -0.649414 1.44043 -0.973633 2.37793 -0.973633c0.936523 0 1.72949 0.325195 2.37793 0.973633l33.6709 32.4277c8.25098 8.25098 12.377 16.3564 12.377 24.3203c0 7.92676 -2.28809 14.124 -6.86426 18.5928
c-4.57715 4.46777 -10.8994 6.70215 -18.9707 6.70215c-2.23535 0 -4.5127 -0.388672 -6.83691 -1.16211c-2.3252 -0.776367 -4.48633 -1.82031 -6.48633 -3.13574s-3.7207 -2.54883 -5.16211 -3.70117c-1.44043 -1.15332 -2.80957 -2.37891 -4.10645 -3.67578
c-1.2959 1.29688 -2.66602 2.52148 -4.10742 3.67578c-1.44141 1.15234 -3.16211 2.38574 -5.16211 3.70117c-1.99902 1.31543 -4.16113 2.36035 -6.48438 3.13574c-2.32422 0.773438 -4.60352 1.16211 -6.83691 1.16211c-8.07227 0 -14.3955 -2.23438 -18.9717 -6.70215z
M142.864 288.487c-4.57617 -4.46875 -6.86426 -10.666 -6.8623 -18.5928c0 -2.41309 0.422852 -4.89941 1.27051 -7.45801c0.84668 -2.55859 1.81055 -4.73828 2.8916 -6.53906c1.08105 -1.80273 2.30469 -3.55957 3.6748 -5.27051
c1.36914 -1.71191 2.36914 -2.8916 3 -3.54004c0.629883 -0.647461 1.125 -1.11719 1.48633 -1.40527l33.7246 -32.5352c0.649414 -0.649414 1.44141 -0.973633 2.37793 -0.973633c0.9375 0 1.73047 0.325195 2.37793 0.973633l33.6709 32.4277
c8.25098 8.25098 12.377 16.3564 12.377 24.3203c0 7.92676 -2.28711 14.124 -6.86328 18.5928c-4.57715 4.46777 -10.9004 6.70215 -18.9717 6.70215c-2.23438 0 -4.5127 -0.388672 -6.83691 -1.16211c-2.32422 -0.776367 -4.48535 -1.82031 -6.48535 -3.13574
s-3.72168 -2.54883 -5.16211 -3.70117c-1.44141 -1.15332 -2.81055 -2.37891 -4.10742 -3.67578c-1.2959 1.29688 -2.66602 2.52148 -4.10645 3.67578c-1.44238 1.15234 -3.16211 2.38574 -5.16211 3.70117s-4.16211 2.36035 -6.48633 3.13574
c-2.32422 0.773438 -4.60254 1.16211 -6.83691 1.16211c-8.07227 0 -14.3945 -2.23438 -18.9707 -6.70215zM256 44c60.2959 0 111.2 40.9521 126.381 96.5h-252.761c15.1797 -55.5479 66.083 -96.5 126.38 -96.5z" />
    <glyph glyph-name="uniF11D" unicode="&#xf11d;" 
d="M290.176 -19.8398v180.579h49.9912l6.64941 62.2578h-56.626l0.0849609 31.1465c0 16.2354 1.54297 24.9395 24.9316 24.9395h31.2461v62.25h-50.0127c-60.0527 0 -81.1943 -30.208 -81.1943 -80.9814v-37.3545h-37.4688v-62.2578h37.4756v-180.579h74.9229z" />
    <glyph glyph-name="uniF157" unicode="&#xf157;" 
d="M467.2 329.4v-22.3008c-8 -4.2998 -21.2002 -7.7998 -39.7002 -10.5c-18.5 -2.69922 -38.5 -4.69922 -59.9004 -6.09961c-21.3994 -1.40039 -42.1992 -2.2002 -62.5 -2.40039c-20.1992 -0.199219 -36.3994 -0.299805 -48.3994 -0.299805
c-11.9004 0 -28 0.100586 -48.4004 0.299805c-20.5 0.200195 -41.5 1 -62.8994 2.40039c-21.4004 1.40039 -41.3008 3.40039 -59.6006 5.90039c-18.2998 2.59961 -31.3994 6.19922 -39.3994 10.6992c-0.5 3.40039 -0.700195 7.2002 -0.700195 11.2002v22.7998
c0 3.90039 0.200195 7.80078 0.700195 11.7002c5.2998 3 13.0996 5.5 22.8994 7.60059c9.90039 2 20.4004 3.69922 31.6006 5c11.1992 1.2998 22.2998 2.19922 33.0996 2.89941c10.9004 0.600586 19.2998 1.2002 25.4004 1.60059
c-1.80078 17.5996 -0.5 31.3994 3.69922 41.2998c4.2002 9.89941 10.6006 17.2998 19.2002 22.0996c8.60059 4.90039 19.2002 8 31.7998 9.40039c12.7002 1.39941 26.8008 2 42.5 2c11.9004 0 23.7002 -0.299805 35.4004 -0.900391
c11.7002 -0.700195 22.2002 -2.89941 31.5 -6.59961c9.2002 -3.7998 16.5996 -9.7002 22.0996 -17.7002s8.2002 -19.2002 8.2002 -33.9004v-7.7998c0 -2.59961 -0.299805 -5.2998 -0.700195 -8c6.30078 -0.5 14.8008 -1.09961 25.5 -1.59961
c10.7002 -0.700195 21.8008 -1.60059 33.1006 -2.90039s22 -3 32.0996 -5c10.1006 -2 17.9004 -4.59961 23.2998 -7.59961zM256.6 250.3c27.8008 0.400391 55.6006 1.10059 83.4004 1.90039c27.7002 0.899414 55.5996 3 83.4004 6.5v-270.4
c0 -13.5996 -4.7002 -25.2998 -14.2002 -35.0996s-21 -14.6006 -34.6006 -14.6006h-236.3c-13.5996 0 -25.2002 4.7002 -35.0996 14.5c-9.7998 9.60059 -14.7002 21.4004 -14.7002 35.2002v270.4c26.5 -3.5 52.7998 -5.7002 78.7998 -6.7998
c26.1006 -1.10059 52.2998 -1.60059 78.7998 -1.60059h10.5zM180.7 201.1c0 3.40039 -1.2998 6.5 -3.7002 9c-2.5 2.5 -5.5 3.7002 -8.90039 3.7002h-12.5996c-3.5 0 -6.2998 -1.2002 -8.59961 -3.7002c-2.30078 -2.5 -3.40039 -5.5 -3.40039 -9v-198.399
c0 -3.40039 1.09961 -6.2002 3.40039 -8.60059c2.19922 -2.19922 5.09961 -3.2998 8.59961 -3.2998h12.5996c3.40039 0 6.40039 1.10059 8.90039 3.2002c2.40039 2.2002 3.7002 5.09961 3.7002 8.7002v198.399zM209.7 371.1c31 0.5 62.2998 0.5 94 0
c0 2.60059 0.200195 5.10059 0.700195 7.60059c0.399414 2.5 0.399414 4.7998 0 7v4.7998c-7.60059 2.2002 -15.6006 3.40039 -23.9004 3.59961c-8.40039 0.200195 -16.4004 0.300781 -23.9004 0.300781c-8 0 -16.0996 -0.100586 -24.3994 -0.300781
c-8.2998 -0.199219 -16.2002 -1.39941 -23.7002 -3.59961v-4.7998c0 -2.2002 0.0996094 -4.5 0.299805 -7.10059c0.200195 -2.69922 0.5 -5.09961 0.900391 -7.5zM275.3 201.1c0 3.40039 -1.2002 6.5 -3.7002 9s-5.5 3.7002 -8.89941 3.7002h-12.6006
c-3.39941 0 -6.2998 -1.2002 -8.59961 -3.7002c-2.2002 -2.5 -3.40039 -5.5 -3.40039 -9v-198.399c0 -3.40039 1.10059 -6.2002 3.2002 -8.60059c2.10059 -2.19922 5 -3.2998 8.7002 -3.2998h12.5996c3.40039 0 6.40039 1.10059 8.90039 3.2002
c2.5 2.2002 3.7002 5.09961 3.7002 8.7002zM332.2 2.7998c0 -3.39941 1.2002 -6.2002 3.59961 -8.59961c2.40039 -2.2002 5.40039 -3.2998 9 -3.2998h12.7002c3.40039 0 6.40039 1.09961 8.7998 3.19922c2.5 2.2002 3.7998 5.10059 3.7998 8.7002v198.3
c0 3.40039 -1.2998 6.5 -3.7998 9c-2.39941 2.5 -5.39941 3.7002 -8.7998 3.7002h-12.7002c-3.39941 0 -6.39941 -1.2002 -8.7998 -3.7002c-2.5 -2.5 -3.7998 -5.5 -3.7998 -9v-198.3z" />
    <glyph glyph-name="uniF12E" unicode="&#xf12e;" 
d="M2.09961 448h114.301v-114.3h-114.301v114.3zM200.1 448h311.9v-114.3h-311.9v114.3zM2.09961 250.2h114.301v-114.3h-114.301v114.3zM200.1 250.2h311.9v-114.3h-311.9v114.3zM2.09961 51.2998h114.301v-114.3h-114.301v114.3zM200.1 51.2998h311.9v-114.3h-311.9v114.3
z" />
    <glyph glyph-name="uniF119" unicode="&#xf119;" 
d="M308.4 448.3l144 -149.399v-363.4h-395v512.8h251zM315.2 381.4v-70.4004h67.7998zM98.9004 -22.9004l311.8 -0.0996094v302.8h-126.8v126.9h-185v-429.601zM136.4 30.5996l70.0996 87.6006h-64.9004v13.5996h84.8008v-13.2998l-70.5 -87.0996h70.5v-13.6006h-90v12.7998
zM245.3 131.7h15.6006v-113.9h-15.6006v113.9zM287.5 131.7h51c10.0996 0 18.2002 -2.90039 24.4004 -8.60059c6.19922 -5.69922 9.2998 -13.6992 9.2998 -24.0996c0 -8.90039 -2.7998 -16.5996 -8.2998 -23.2002c-5.5 -6.59961 -14 -9.89941 -25.4004 -9.89941h-35.5996
v-48.2002h-15.4004v114zM347.3 116.1c-3.39941 1.60059 -8 2.40039 -13.8994 2.40039h-30.5v-39.5h30.5c6.89941 0 12.5 1.5 16.6992 4.40039c4.2002 2.89941 6.40039 8.09961 6.40039 15.5996c0 8.40039 -3 14.0996 -9.2002 17.0996z" />
    <glyph glyph-name="uniF152" unicode="&#xf152;" 
d="M511.522 246.835c0 -4.50195 -2.66602 -9.42969 -7.99707 -14.7393l-111.507 -108.752l26.4092 -153.596c0.202148 -1.43359 0.314453 -3.49414 0.314453 -6.16016c0 -4.30078 -1.0752 -7.92969 -3.22656 -10.8857c-2.14941 -2.97949 -5.28516 -4.45801 -9.3623 -4.45801
c-3.89844 0 -7.99707 1.23145 -12.2979 3.67383l-137.939 72.5078l-137.916 -72.5078c-4.52539 -2.44238 -8.60156 -3.67383 -12.2979 -3.67383c-4.30078 0 -7.52637 1.47754 -9.67676 4.45801c-2.15039 2.95703 -3.22656 6.58594 -3.22656 10.8857
c0 1.23242 0.202148 3.29297 0.605469 6.16016l26.4316 153.596l-111.819 108.752c-5.12988 5.5332 -7.68262 10.4385 -7.68262 14.7393c0 7.57129 5.73438 12.2979 17.2031 14.1338l154.223 22.4219l69.1045 139.775c3.89746 8.40039 8.91504 12.5889 15.0527 12.5889
c6.16016 0 11.1553 -4.18848 15.0527 -12.5889l69.126 -139.775l154.224 -22.4219c11.4463 -1.83594 17.2031 -6.5625 17.2031 -14.1338z" />
    <glyph glyph-name="uniF15C" unicode="&#xf15c;" 
d="M4.2998 376h503.9v-157.5h-70.9004l-132.2 -189l-22 -31.5h-250.6l22.0996 31.5h212.101l132.2 189h-37.1006l-88.2002 -126l-22 -31.5h-250.6l22.0996 31.5l88.2002 126h-107v157.5zM235.2 92.5l149.5 213.7h-173.7l-149.5 -213.7h173.7zM190.9 216.2
c9 13 31.7998 23.5 50.8994 23.5l8.2002 11.7002h17.2002l-8.2998 -11.7002h34.5l-8.2002 -11.7998h-51.6006c-9.5 0 -20.8994 -5.2002 -25.5 -11.7002c-4.5 -6.5 -0.5 -11.7998 9 -11.7998h17.2002c18.9004 0 26.9004 -10.5 17.7998 -23.5
c-9.09961 -13 -31.7998 -23.5 -50.7998 -23.5l-8.2002 -11.7002h-17.1992l8.19922 11.7002h-34.2998l8.2002 11.7998h51.5996c9.5 0 20.8008 5.2002 25.4004 11.7002s0.5 11.7998 -9 11.7998h-17.0996c-19 0 -27.1006 10.5 -18 23.5z" />
    <glyph glyph-name="uniF10E" unicode="&#xf10e;" 
d="M442.9 214.3l-189.5 -189.5c-3.2002 -3.2002 -8.7002 -3.2002 -11.9004 0l-189.5 189.5c-3.2002 3.2002 -3.2002 8.7002 0 11.9004l57.7998 57.7998c3.2002 3.2002 8.7002 3.2002 11.9004 0l125.8 -125.8l125.8 125.8c3.2002 3.2002 8.7002 3.2002 11.9004 0
l57.7998 -57.7998c1.2002 -2 2.40039 -3.60059 2.40039 -5.90039c-0.100586 -2.5 -0.900391 -4 -2.5 -6z" />
    <glyph glyph-name="uniF13A" unicode="&#xf13a;" 
d="M316.3 -46.9004c0 -5.7998 -4.59961 -10.5 -10.5 -10.5h-293.1c-5.7998 0 -10.5 4.60059 -10.5 10.5v20.9004c0 72.7002 104.7 52.2998 104.7 117.5c0 0 -41.9004 47.0996 -41.9004 133.8c0 51.7998 41.9004 94.2002 94.2002 94.2002
c51.7998 0 94.2002 -42.4004 94.2002 -94.2002c0 -86.7002 -41.9004 -133.8 -41.9004 -133.8c0 -65.0996 104.7 -44.2002 104.7 -117.5v-20.9004h0.0996094zM504.7 78.7002c0 -5.7998 -4.7002 -10.4004 -10.5 -10.4004h-201.2
c-25 8.10059 -34.9004 17.4004 -34.9004 17.4004s37.2002 56.3994 37.2002 139.6c0 60.5 -40.0996 96 -40.0996 96v0.600586c-1.2002 9.2998 -1.7002 18.5996 -1.7002 29.0996c0 51.7998 41.9004 94.2002 94.2002 94.2002c51.7998 0 94.2002 -42.5 94.2002 -94.2002
c0 -86.5996 -41.9004 -133.7 -41.9004 -133.7c0 -65.2002 104.7 -44.2002 104.7 -117.5v-21.0996z" />
    <glyph glyph-name="uniF103" unicode="&#xf103;" 
d="M96.7002 184.7c-2.90039 2.2998 -4.10059 5.2998 -4.10059 8.2002c0 2.89941 1.2002 6.5 4.10059 8.19922l296.2 243.301c2.89941 2.39941 7 2.89941 11.1992 1.19922c3.5 -1.7998 5.90039 -5.2998 5.90039 -9.39941v-486.5
c0 -4.10059 -2.2998 -7.60059 -5.90039 -9.40039c-4.09961 -1.7998 -8.19922 -1.2002 -11.1992 1.2002z" />
    <glyph glyph-name="uniF126" unicode="&#xf126;" 
d="M256 448c141.4 0 256 -114.6 256 -256s-114.6 -256 -256 -256s-256 114.6 -256 256s114.6 256 256 256zM256 -32c62.7002 0 119.4 25.7998 160.1 67.2998c0.100586 0.900391 0.200195 1.7002 0.400391 2.60059c23.5996 92.8994 11.0996 160.3 4.2002 186.199
c-1.60059 -0.0996094 -3.2002 -0.0996094 -4.7998 -0.0996094c-25.2002 0 -49.6006 9.90039 -67.8008 28.0996c-18.0996 18.1006 -28.0996 42.3008 -28.0996 67.9004s10 49.7998 28.0996 67.9004c1.90039 1.89941 3.90039 3.69922 6 5.5
c-29.5996 14.5 -62.8994 22.5996 -98.0996 22.5996c-22.2002 0 -43.7002 -3.2998 -64 -9.2998v-38.7002c0 -4.2002 -1.7002 -8.2998 -4.7002 -11.2998l-64 -64c-3 -3 -7.09961 -4.7002 -11.2998 -4.7002h-58.4004c-13.8994 -29.0996 -21.5996 -61.5996 -21.5996 -96
c0 -76.0996 38 -143.4 96 -183.8v93.8994l-55.2002 27.6006c-5.39941 2.7002 -8.7998 8.2002 -8.7998 14.2998v96c0 8.7998 7.2002 16 16 16h64c4.2002 0 8.2998 -1.7002 11.2998 -4.7002c0.600586 -0.599609 60.2002 -59.2998 116.7 -59.2998c8.7998 0 16 -7.2002 16 -16
v-48c0 -3.90039 -1.40039 -7.7002 -4 -10.5996l-116.6 -131.2c27.1992 -11.7002 57.0996 -18.2002 88.5996 -18.2002z" />
    <glyph glyph-name="uniF14E" unicode="&#xf14e;" 
d="M68.0996 94v318.5c0 8.7998 3.10059 16.2998 9.2002 22.5996c6.10059 6.30078 13.7002 9.40039 22.7002 9.40039h370.3c9 0 16.5 -3.09961 22.7002 -9.40039c6.2002 -6.19922 9.2002 -13.7998 9.2002 -22.5996v-318.5c0 -8.7998 -3.10059 -16.2998 -9.2002 -22.5996
c-6.2002 -6.2002 -13.7002 -9.40039 -22.7002 -9.40039h-61v-54.9004l-99 54.9004h-210.3c-9 0 -16.5 3.09961 -22.7002 9.40039c-6.2002 6.2998 -9.2002 13.7998 -9.2002 22.5996zM97.4004 94.2002c0 -1.90039 0.899414 -2.90039 2.59961 -2.90039h217.8l6.60059 -3.2002
l45.8994 -25.8994l9.7998 -5.5v34.5996h90.3008c1.7998 0 2.59961 1 2.59961 2.90039v318.3c0 1.7998 -0.900391 2.59961 -2.59961 2.59961h-370.4c-1.7998 0 -2.59961 -0.899414 -2.59961 -2.59961v-318.3zM161 326.5c-2.7998 2.7998 -4.2002 6.2002 -4.2002 10.2998
c0 4.10059 1.40039 7.5 4.2002 10.4004c2.7998 2.89941 6.2002 4.39941 10.2998 4.39941h227.7c4.09961 0 7.5 -1.5 10.2998 -4.39941c2.7998 -2.90039 4.2002 -6.40039 4.2002 -10.4004c0 -4.09961 -1.40039 -7.5 -4.2002 -10.2998s-6.2002 -4.2002 -10.2998 -4.2002
h-227.7c-4.09961 0 -7.5 1.40039 -10.2998 4.2002zM207.6 261c-2.89941 2.7998 -4.39941 6.2002 -4.39941 10.2998c0 4.10059 1.39941 7.5 4.39941 10.4004c2.90039 2.89941 6.40039 4.39941 10.4004 4.39941h181c4.09961 0 7.5 -1.5 10.2998 -4.39941
c2.7998 -2.90039 4.2002 -6.40039 4.2002 -10.4004c0 -4.09961 -1.40039 -7.5 -4.2002 -10.2998s-6.2002 -4.2002 -10.2998 -4.2002h-181c-4.09961 0 -7.5 1.40039 -10.4004 4.2002zM283.2 196.2c-2.7998 2.89941 -4.2002 6.39941 -4.2002 10.3994
c0 4.10059 1.40039 7.5 4.2002 10.3008c2.7998 2.7998 6.2002 4.19922 10.2998 4.19922h105.5c4.09961 0 7.5 -1.39941 10.2998 -4.19922c2.7998 -2.80078 4.2002 -6.2002 4.2002 -10.3008c0 -4.09961 -1.40039 -7.5 -4.2002 -10.3994
c-2.7998 -2.90039 -6.2002 -4.40039 -10.2998 -4.40039h-105.5c-4.09961 0.100586 -7.5 1.5 -10.2998 4.40039zM310.9 23.7002c6.89941 0 12.5 -6.90039 12.3994 -15.5c0 -8.60059 -5.59961 -15.5 -12.5 -15.5h-107.3c-1.2002 0 -2.2998 0.5 -3.40039 0.899414
l-97.5 -54.0996v54.9004h-61c-9 0 -16.5 3.19922 -22.6992 9.39941c-6.10059 6.2998 -9.2002 13.7998 -9.2002 22.6006v330.3c0 7.2002 6.89941 13.0996 15.5 13.0996c8.59961 0 15.5 -5.7998 15.5 -13.0996v-268.3c0.200195 -38.3008 0.5 -64.7002 1 -64.7002h90.2002
v-34.6006l9.7998 5.5l45.8994 25.9004l6.60059 3.2002h116.7z" />
    <glyph glyph-name="uniF15A" unicode="&#xf15a;" 
d="M444.8 237.5c37.5 -21.9004 63.2002 -62.0996 63.2002 -108.5c0 -69.2998 -56.7002 -126 -126 -126h-94.5v126h63l-94.5 126l-94.5 -126h63v-126h-94.5c-69.2998 0 -126 56.7002 -126 126c0 46.4004 25.7002 86.5996 63.2002 108.4l-0.200195 1.7998
c0 43.5 35.2002 78.7998 78.7002 78.7998c12.7002 0 24.5 -3.2998 35.0996 -8.59961c24.4004 42.5996 69.7998 71.5996 122.4 71.5996c78.3994 0 141.8 -63.5 141.8 -141.7z" />
    <glyph glyph-name="uniF11B" unicode="&#xf11b;" 
d="M237.2 125l-142.601 226.3c-10.6992 16.9004 -3 30.7002 16.9004 30.7002h290.1c19.9004 0 27.5 -13.7998 16.9004 -30.7002l-142.6 -226.3c-10.7002 -16.9004 -28.1006 -16.9004 -38.7002 0zM472.6 55.5996c20 0 36.2002 -16.1992 36.2002 -36.2998
c0 -20.0996 -16.2998 -36.2998 -36.2998 -36.2998h-435.1c-20.1006 0 -36.3008 16.2002 -36.3008 36.2998c0 20.1006 16.3008 36.2998 36.3008 36.2998h435.199z" />
    <glyph glyph-name="uniF10B" unicode="&#xf10b;" 
d="M57.5 -25.5h81.5v81.5h-81.5v-81.5zM157.1 -25.5h90.6006v81.5h-90.6006v-81.5zM57.5 74.2002h81.5v90.5996h-81.5v-90.5996zM157.1 74.2002h90.6006v90.5996h-90.6006v-90.5996zM57.5 183h81.5v81.5h-81.5v-81.5zM265.9 -25.5h90.5996v81.5h-90.5996v-81.5zM157.1 183
h90.6006v81.5h-90.6006v-81.5zM374.7 -25.5h81.5v81.5h-81.5v-81.5zM265.9 74.2002h90.5996v90.5996h-90.5996v-90.5996zM166.2 318.9v81.5996c0 2.40039 -0.900391 4.59961 -2.7002 6.40039c-1.7998 1.7998 -3.90039 2.69922 -6.40039 2.69922h-18.0996
c-2.40039 0 -4.59961 -0.899414 -6.40039 -2.69922c-1.7998 -1.80078 -2.69922 -3.90039 -2.69922 -6.40039v-81.5c0 -2.40039 0.899414 -4.59961 2.69922 -6.40039c1.80078 -1.7998 3.90039 -2.69922 6.40039 -2.69922h18.0996c2.40039 0 4.60059 0.899414 6.40039 2.69922
c1.7998 1.7002 2.7002 3.80078 2.7002 6.30078zM374.7 74.2002h81.5v90.5996h-81.5v-90.5996zM265.9 183h90.5996v81.5h-90.5996v-81.5zM374.7 183h81.5v81.5h-81.5v-81.5zM383.7 318.9v81.5996c0 2.40039 -0.900391 4.59961 -2.7002 6.40039
c-1.7998 1.7998 -3.90039 2.69922 -6.40039 2.69922h-18.0996c-2.40039 0 -4.59961 -0.899414 -6.40039 -2.69922c-1.7998 -1.80078 -2.69922 -3.90039 -2.69922 -6.40039v-81.5c0 -2.40039 0.899414 -4.59961 2.69922 -6.40039
c1.80078 -1.7998 3.90039 -2.69922 6.40039 -2.69922h18.0996c2.40039 0 4.60059 0.899414 6.40039 2.69922c1.7998 1.7002 2.7002 3.80078 2.7002 6.30078zM492.4 337v-362.5c0 -9.7998 -3.60059 -18.2998 -10.8008 -25.5
c-7.19922 -7.09961 -15.6992 -10.7998 -25.5 -10.7998h-398.699c-9.80078 0 -18.3008 3.59961 -25.5 10.7998c-7.10059 7.2002 -10.8008 15.7002 -10.8008 25.5v362.5c0 9.7998 3.60059 18.2998 10.8008 25.5c7.19922 7.09961 15.6992 10.7998 25.5 10.7998h36.1992v27.2002
c0 12.5 4.40039 23.0996 13.3008 32c8.7998 8.7998 19.5996 13.2998 32 13.2998h18.0996c12.5 0 23.0996 -4.39941 32 -13.2998s13.2998 -19.5996 13.2998 -32v-27.2002h108.7v27.2002c0 12.5 4.40039 23.0996 13.2998 32c8.7998 8.7998 19.6006 13.2998 32 13.2998h18.1006
c12.5 0 23.0996 -4.39941 32 -13.2998c8.7998 -8.90039 13.2998 -19.5996 13.2998 -32v-27.2002h36.2998c9.7998 0 18.2998 -3.59961 25.5 -10.7998s10.9004 -15.7002 10.9004 -25.5z" />
    <glyph glyph-name="uniF10A" unicode="&#xf10a;" 
d="M413.9 227.6c1.5 -2.69922 -1.5 -7.09961 -7.5 -10c-0.900391 -0.5 -1.80078 -0.799805 -2.60059 -1.09961c0.100586 -3.2002 0.200195 -6.40039 0.299805 -9.90039c0 -8.19922 0.300781 -9.69922 -0.299805 -18.2998
c-0.599609 -8.09961 -1.7998 -15.2998 -3.39941 -22.7998l-0.800781 -3.09961l1.30078 -0.600586c5.19922 -2.5 8.2998 -6.7998 7 -9.59961c-1.30078 -2.7002 -6.40039 -2.90039 -11.5 -0.600586c-1 -3 -2.10059 -6.09961 -3.40039 -9.19922
c-6.5 -15.5 -16.0996 -31.6006 -31.2998 -45.6006c-2.60059 -2.39941 -5.5 -4.59961 -8.5 -6.7998c3.2002 -4.5 3.89941 -9.40039 1.5 -11.2002c-2.40039 -1.89941 -7.2002 0.400391 -10.7002 5.10059v0.0996094c-3 -1.7002 -6.2002 -3.40039 -9.59961 -4.90039
c-10.4004 -4.2998 -21.9004 -7.09961 -33.8008 -7.5v-51.2998c4.30078 0.700195 7.90039 -0.399414 8.7002 -2.7998c0.900391 -2.90039 -2.89941 -6.7002 -8.39941 -8.40039l-0.300781 -0.0996094v-71.9004h-85.3994v33.2002c-4 1.60059 -6.60059 4.40039 -6.10059 6.7998
c0.400391 2 2.90039 3.30078 6.10059 3.60059v70.2002c-0.100586 0 -0.299805 0.0996094 -0.5 0.0996094c-5.7002 1.2002 -9.7998 4.7002 -9.10059 7.7002c0.600586 2.7002 4.7002 4.09961 9.60059 3.5v58h-2.10059l-3.89941 0.0996094l-5.40039 0.400391
c-0.5 0 -2.39941 0.299805 -4.2998 0.599609l-5.40039 1l-5.39941 1.2002c-1.60059 0.5 -2.90039 0.900391 -4.2998 1.40039c-2.80078 0.899414 -5.60059 1.7998 -8.30078 3c-10.6992 4.69922 -19.8994 10.8994 -27.6992 17.7998
c-4 3.59961 -7.60059 7.39941 -10.9004 11.2998l-0.799805 -0.400391c-5.2998 -2.39941 -10.6006 -2.09961 -11.9004 0.700195c-1.09961 2.5 1.5 6.2002 5.90039 8.7002c-5.90039 8.40039 -10.4004 17 -14 25.5c-2.60059 6.5 -4.5 12.7998 -6.10059 19.0996
c-5.2998 -0.5 -9.89941 1.2002 -10.2998 4.10059c-0.399414 2.7998 3.10059 5.59961 8 6.7002c-0.899414 5.2998 -1.59961 10.3994 -2 15.3994c-0.399414 3.5 -0.299805 6.90039 -0.399414 10.2998c-0.100586 3.5 -0.100586 6.80078 0 9
c0.199219 4.30078 0.399414 8.5 0.5 12.4004c-5.30078 0.299805 -9.40039 2.59961 -9.40039 5.5s4.5 5.2998 10 5.5c0.299805 5.09961 0.5 9.7998 0.700195 13.7998c0.399414 5.2002 0.599609 9.5 0.799805 12.7998c-4.2998 0.700195 -7.40039 2.80078 -7.40039 5.30078
c0 2.59961 3.60059 4.7998 8.30078 5.39941c2.39941 14.2998 13.8994 25.2998 28 27.2998c1.09961 4.80078 3.89941 8.30078 6.59961 7.90039c2.5 -0.299805 4.2002 -3.7998 4.2998 -8.2998c12.2998 -2.40039 21.9004 -11.4004 25.4004 -23
c5.2002 1.59961 10.0996 0.799805 11.0996 -2c1 -2.90039 -2.59961 -6.7998 -8.09961 -8.7002c-0.5 -0.200195 -0.900391 -0.299805 -1.40039 -0.400391c0.200195 -3.2998 0.600586 -8.89941 1 -16.3994c0.299805 -6.40039 0.700195 -14.2002 1.10059 -23.1006
c0.199219 -4.19922 0.299805 -8.69922 0.5 -13.5c4.89941 0.300781 8.89941 -1.2998 9.2998 -4c0.5 -2.89941 -3.2998 -5.89941 -8.5 -7c0 -0.5 0.0996094 -1.09961 0.200195 -1.69922c1 -7.7002 3.19922 -15.8008 6.7998 -23.1006
c3.39941 -7.39941 8.2002 -14.0996 13.2998 -18.3994c2.5 -2 5 -3.60059 7.2998 -4.60059c0.600586 -0.200195 1.2002 -0.299805 1.7002 -0.5l0.599609 -0.200195l-0.0996094 -0.0996094c-0.0996094 0 -0.299805 -0.200195 1 -0.200195l5.40039 -0.299805h0.899414v87.2002
c-5.7002 1.2998 -9.7002 4.7002 -9 7.7002c0.600586 2.5 4.40039 3.89941 9 3.5v100.1c0 0.5 0.100586 1.09961 0.100586 1.7002l-1 0.399414c-5.30078 2.30078 -8.60059 6.5 -7.40039 9.30078c1.09961 2.59961 5.5 3.09961 10.2998 1.5
c4.60059 14.5996 16.7998 25.6992 31.9004 28.8994c-0.200195 5.40039 1.7998 9.7998 4.7002 10.1006c2.89941 0.199219 5.59961 -3.90039 6.2998 -9.30078c13.5996 -0.699219 25.5 -7.69922 32.7998 -18.0996c4 2.7998 8.2998 3.59961 10.0996 1.5
c2 -2.2998 0.100586 -7.2998 -4.2998 -11.0996l-0.599609 -0.5c1.7002 -4.5 2.59961 -9.40039 2.59961 -14.5v-48.2002c3.90039 1.2002 7.40039 0.799805 8.60059 -1.2998c1.39941 -2.7002 -1.5 -7.10059 -6.60059 -9.90039l-2 -0.900391v-117.199
c4.90039 1.09961 9.2002 0 10 -2.60059c0.900391 -2.89941 -2.89941 -6.7002 -8.39941 -8.39941l-1.7002 -0.400391v-59.0996c1.5 0.199219 2.89941 0.599609 4.5 1.09961c2.39941 1 4.89941 2.59961 7.59961 4.59961c4.2002 3.5 8.2002 8.60059 11.4004 14.3008
c-4.10059 3 -6.2998 7.09961 -4.7998 9.5c1.39941 2.09961 5.2998 2.19922 9.39941 0.399414c0.700195 2 1.2998 4 1.90039 6c1.09961 4 1.89941 8.10059 2.2998 10.9004c0.599609 2.2998 1 11.2998 1.09961 13.0996c0.200195 5 0.400391 9.7002 0.5 14.2002
c0.200195 6.2002 0.400391 11.7002 0.600586 16.7002c-5.7002 1.09961 -9.7998 4.5 -9.2002 7.5c0.5 2.7002 4.7002 4.09961 9.59961 3.59961c0.5 9.7998 0.700195 15.2998 0.700195 15.2998c0.700195 15.6006 12 28.2002 26.7002 31v0.100586
c-0.5 5.7002 1.59961 10.5996 4.7002 10.8994c3 0.300781 5.89941 -4.19922 6.39941 -10v-0.899414c7.5 -1.10059 14.1006 -4.60059 19 -9.7998c3.60059 4 8 5.7998 10.3008 4c2.39941 -2 1.39941 -7.2002 -2.30078 -11.7002c-0.5 -0.700195 -1 -1.2998 -1.59961 -1.7998
c1.59961 -3.60059 2.59961 -7.60059 2.7998 -11.8008c0 0 0.299805 -7.2998 0.900391 -20.0996c0.0996094 -4.5 0.299805 -9.7002 0.5 -15.4004c4.39941 1.7002 8.5 1.30078 9.7002 -1z" />
    <glyph glyph-name="uniF138" unicode="&#xf138;" 
d="M433.664 30.208c2.04785 -49.6641 -33.2803 -63.4883 -44.0322 -67.584c-103.424 -43.5205 -227.328 -4.0957 -317.439 86.5283c-99.3281 99.8398 -96.7686 271.872 11.7754 348.672c108.544 76.2881 272.384 44.5439 365.568 -71.168
c53.7598 -66.5605 70.6562 -135.168 59.3916 -192c-4.0957 -18.9443 -34.8154 -43.0078 -55.2959 -4.09668c-33.792 64.5127 -49.6641 31.2324 -50.6875 4.6084c-1.02441 -23.5518 29.6953 -84.4795 30.7197 -104.96zM142.848 365.568
c-19.9678 -13.8242 -24.5752 -40.4482 -10.752 -60.416c13.8242 -19.9688 40.96 -24.5762 60.416 -10.752c19.9688 13.8232 24.5762 40.96 10.752 60.416c-13.8232 19.9678 -40.96 24.5752 -60.416 10.752zM57.8564 188.928
c13.8232 -19.4561 40.96 -24.0635 60.416 -10.2393c19.9678 13.8232 24.5752 40.96 10.752 60.415c-13.8242 19.4561 -40.96 24.0645 -60.416 10.2402c-19.9688 -13.8242 -24.5762 -40.96 -10.752 -60.416zM268.8 302.08c13.8242 -19.4561 40.96 -24.0645 60.416 -10.752
c19.9678 13.8242 24.5762 40.96 10.752 60.416c-13.8242 19.9678 -40.96 24.5762 -60.416 10.752c-19.9678 -13.8242 -24.5762 -40.96 -10.752 -60.416zM121.856 78.3359c13.8232 -19.4561 40.96 -24.5762 59.9033 -10.752c19.9678 13.8242 24.5762 40.96 10.752 60.416
c-13.8232 19.9678 -40.96 24.5762 -60.416 10.752s-24.0635 -40.96 -10.2393 -60.416z" />
    <glyph glyph-name="uniF111" unicode="&#xf111;" 
d="M0 192c0 40.2285 9.14258 76.7998 29.2568 109.714c20.1143 32.915 45.7148 60.3438 80.457 80.458c34.7432 20.1143 69.4863 29.2568 109.715 29.2568s76.7998 -9.14258 109.714 -29.2568c32.915 -20.1143 60.3428 -45.7148 80.457 -80.458
c20.1143 -34.7422 29.2578 -69.4854 29.2578 -109.714s-9.14355 -76.7998 -29.2578 -109.714c-20.1143 -32.915 -45.7139 -60.3438 -80.457 -80.458c-34.7422 -20.1143 -69.4854 -29.2568 -109.714 -29.2568s-76.7998 9.14258 -109.715 29.2568
c-32.9141 20.1143 -60.3428 45.7148 -80.457 80.458c-20.1143 34.7422 -29.2568 69.4854 -29.2568 109.714zM64 192c0 -27.4287 7.31445 -54.8574 20.1143 -78.6289s32.9141 -42.0566 56.6855 -56.6855c23.7715 -14.6279 49.3721 -20.1143 78.6289 -20.1143
s54.8574 7.31445 78.6289 20.1143c23.7705 12.7998 42.0566 32.9141 56.6855 56.6855c14.6279 23.7715 20.1143 49.3721 20.1143 78.6289s-7.31445 54.8574 -20.1143 78.6289c-14.6289 23.7715 -32.915 42.0566 -56.6855 56.6855
c-23.7715 14.6279 -51.2002 20.1143 -78.6289 20.1143s-54.8574 -7.31445 -78.6289 -20.1143s-42.0566 -32.9141 -56.6855 -56.6855s-20.1143 -51.2002 -20.1143 -78.6289zM146.286 164.571v18.2861c0 1.82812 0 5.48535 1.82812 7.31445
c1.82812 1.82812 5.48535 1.82812 7.31445 1.82812h64v100.571c0 1.8291 0 5.48633 1.82812 7.31445c1.8291 1.82812 5.48633 1.82812 7.31445 1.82812h18.2861c1.82812 0 5.48535 0 7.31445 -1.82812c1.82812 -1.82812 1.82812 -5.48535 1.82812 -7.31445v-128
c0 -1.82812 0 -5.48535 -1.82812 -7.31445c-1.8291 -1.82812 -5.48633 -1.82812 -7.31445 -1.82812h-91.4287c-1.8291 0 -5.48633 0 -7.31445 1.82812c-1.82812 1.8291 -1.82812 5.48633 -1.82812 7.31445z" />
    <glyph glyph-name="uniF124" unicode="&#xf124;" 
d="M510.9 174.2c0 -11 -4.10059 -21.6006 -12.2002 -31.9004l-78.4004 -96.5c-7.59961 -9.39941 -17.8994 -17.2002 -30.7998 -23.2998s-25.4004 -9.2002 -37.2002 -9.2002h-289.399c-16.3008 0 -30.3008 5.7998 -42 17.5c-11.7002 11.7002 -17.5 25.7002 -17.5 42v255.3
c0 16.3008 5.7998 30.3008 17.5 42c11.6992 11.7002 25.6992 17.5 42 17.5h85.0996c16.2998 0 30.2998 -5.7998 42 -17.5c11.7002 -11.6992 17.5 -25.6992 17.5 -42v-8.5h144.6c16.3008 0 30.3008 -5.7998 42 -17.5c11.7002 -11.6992 17.5 -25.6992 17.5 -42v-42.5h51.1006
c9.59961 0 18.2998 -2.19922 26.2998 -6.5c8 -4.2998 13.9004 -10.5996 17.7998 -18.6992c2.7998 -5.80078 4.10059 -11.8008 4.10059 -18.2002zM173.5 217.5h204.2v42.5c0 7.09961 -2.5 13.0996 -7.40039 18.0996c-5 5 -11 7.40039 -18.0996 7.40039h-153.2
c-7.09961 0 -13.0996 2.5 -18.0996 7.40039c-5 5 -7.40039 11 -7.40039 18.0996v17c0 7.09961 -2.5 13.0996 -7.40039 18.0996c-5 5 -11 7.40039 -18.0996 7.40039h-85.0996c-7.10059 0 -13.1006 -2.5 -18.1006 -7.40039c-5 -5 -7.39941 -11 -7.39941 -18.0996v-226.8
l68.0996 83.7998c7.7998 9.40039 18.0996 17.0996 30.7998 23.2998s25.1006 9.2002 37.2002 9.2002zM476.9 174.2c0 6.2002 -4.7002 9.2998 -14.1006 9.2998h-289.3c-7.09961 0 -14.7002 -1.90039 -22.7002 -5.7002c-8.09961 -3.7998 -14.3994 -8.5 -19 -14l-78.2002 -96.5
c-3.19922 -4.2998 -4.7998 -7.7998 -4.7998 -10.5996c0 -6.2002 4.7002 -9.2998 14.1006 -9.2998h289.3c7.09961 0 14.7002 1.89941 22.8994 5.7998c8.2002 3.89941 14.4004 8.59961 18.9004 14.0996l78.2002 96.5c3.09961 3.90039 4.7002 7.40039 4.7002 10.4004z" />
    <glyph glyph-name="uniF166" unicode="&#xf166;" 
d="M512 64c-70.6807 124.002 -163.206 135.851 -298.667 135.851v-123.051l-213.333 179.2l213.333 192v-106.667c249.588 0 298.667 -277.333 298.667 -277.333z" />
    <glyph glyph-name="uniF163" unicode="&#xf163;" 
d="M407.723 351.695h-0.0244141c0.146484 -1.6582 16.0186 -164.864 -1.43848 -272.872c-9.28906 -57.1729 -166.034 -130.779 -183.881 -138.971c-5.38867 -2.4873 -12.3857 -3.85254 -19.7002 -3.85254c-6.89941 0 -13.5312 1.24316 -18.7002 3.48633
c-18.8467 8.2168 -184.003 81.8955 -184.003 140.581v270.823c0 13.2637 12.3613 23.0156 27.8672 20.6748c0.0244141 0 6.29102 -0.901367 17.1885 -0.901367c69.998 0 135.096 63 135.754 63.6338c9.24023 9.09375 16.7734 13.7021 22.3574 13.7021
c5.55859 0 13.0674 -4.6084 22.3564 -13.7021c0.610352 -0.633789 65.8779 -63.6338 135.754 -63.6338c10.9463 0 17.1641 0.901367 17.2373 0.901367c14.7012 2.19434 27.9648 -7.07031 29.2324 -19.8701zM330.411 212.895l-0.0732422 0.0488281
c9.84961 6.63184 9.33789 13.1904 8.16699 16.5547c-1.16992 3.33984 -4.99805 8.94727 -17.1641 8.94727h-66.9746c-4.77832 0 -10.6787 3.9502 -12.166 8.14355l-20.6992 58.7578c-3.73047 10.6797 -10.6787 12.2637 -14.5068 12.2637
c-3.7793 0 -10.752 -1.58398 -14.5068 -12.2637l-20.6992 -58.7578c-1.46289 -4.16895 -7.3877 -8.14355 -12.166 -8.14355h-66.9746c-12.166 0 -15.9941 -5.60742 -17.1641 -8.94727c-1.14551 -3.34082 -1.68262 -9.92285 8.19238 -16.5303l54.1982 -36.3281
c3.87695 -2.58398 6.14453 -9.04492 4.65723 -13.2139l-20.6992 -58.7832c-2.24316 -6.31445 -1.85352 -11.4834 1.16992 -15.2861c2.38965 -3.02344 6.11914 -4.73047 10.2891 -4.73047c3.82715 0 7.75293 1.34082 12.0439 4.24219l54.1992 36.3281
c3.65625 2.46191 11.3857 2.46191 15.0674 0l54.1982 -36.3281c8.92383 -6.02148 17.7734 -5.33887 22.3086 0.439453c2.99902 3.82715 3.41309 8.97168 1.1709 15.2871l-20.7002 58.7822c-1.51172 4.19336 0.755859 10.6055 4.63281 13.2139z" />
    <glyph glyph-name="uniF104" unicode="&#xf104;" 
d="M412.6 199.6c2.90039 -2.2998 4.10059 -5.2998 4.10059 -8.19922c0 -2.90039 -1.2002 -6.5 -4.10059 -8.2002l-295.6 -242.7c-2.90039 -2.40039 -7 -2.90039 -11.0996 -1.2002c-3.5 1.7998 -5.90039 5.2998 -5.90039 9.40039v485.5
c0 4.09961 2.2998 7.59961 5.90039 9.39941c4.09961 1.80078 8.19922 1.2002 11.0996 -1.19922z" />
    <glyph glyph-name="uniF10F" unicode="&#xf10f;" 
d="M0 192c0 46.4434 11.4434 89.2773 34.3291 128.504s53.9395 70.2822 93.167 93.167c39.2256 22.8857 82.0605 34.3291 128.503 34.3291c46.4434 0 89.2783 -11.4434 128.505 -34.3291s70.2812 -53.9404 93.167 -93.167s34.3291 -82.0605 34.3291 -128.504
s-11.4434 -89.2783 -34.3291 -128.504c-22.8867 -39.2275 -53.9404 -70.2812 -93.167 -93.168c-39.2266 -22.8857 -82.0615 -34.3281 -128.505 -34.3281s-89.2773 11.4424 -128.503 34.3281c-39.2275 22.8867 -70.2812 53.9404 -93.167 93.168
c-22.8857 39.2256 -34.3291 82.0605 -34.3291 128.504zM74.6689 192c0 -32.8926 8.11426 -63.2266 24.3418 -91.002c16.2295 -27.7764 38.2305 -49.7783 66.0059 -66.0078c27.7773 -16.2285 58.1113 -24.3418 91.002 -24.3418c32.8936 0 63.2275 8.11328 91.0029 24.3418
c27.7764 16.2285 49.7783 38.2295 66.0068 66.0078c16.2285 27.7754 24.3428 58.1094 24.3428 91.002c0 32.8906 -8.11328 63.2246 -24.3428 91.002c-16.2295 27.7754 -38.2295 49.7793 -66.0068 66.0068c-27.7754 16.2285 -58.1094 24.3418 -91.0029 24.3418
c-32.8906 0 -63.2246 -8.11328 -91.002 -24.3418c-27.7744 -16.2275 -49.7773 -38.2295 -66.0059 -66.0068c-16.2285 -27.7764 -24.3418 -58.1104 -24.3418 -91.002z" />
    <glyph glyph-name="uniF106" unicode="&#xf106;" 
d="M136.922 159.714v-100.996h-67.1865v100.996h67.1865zM237.799 294.324v-235.606h-67.1865v235.606h67.1865zM338.741 226.986v-168.269h-67.252v168.269h67.252zM439.629 327.993v-269.275h-67.1973v269.275h67.1973zM473.189 33.4092v319.827
c0 2.30078 -0.788086 4.2998 -2.48438 5.87695c-1.68457 1.69531 -3.68359 2.48438 -5.86523 2.48438h-420.391c-2.29004 0 -4.28809 -0.789062 -5.86523 -2.48438c-1.56641 -1.69629 -2.47363 -3.69434 -2.47363 -5.87695v-319.708
c0 -2.30078 0.777344 -4.29883 2.47363 -5.87598c1.69531 -1.57715 3.69336 -2.48438 5.86523 -2.48438h420.271c2.30078 0 4.2998 0.788086 5.86523 2.48438c1.81543 1.57715 2.60352 3.51074 2.60352 5.75684zM506.815 353.236v-319.708
c0 -11.5684 -4.05078 -21.4951 -12.3359 -29.7266c-8.23047 -8.29492 -18.082 -12.3564 -29.6934 -12.3564h-420.337c-11.5469 0 -21.4629 4.06152 -29.6943 12.3564c-8.28516 8.23145 -12.335 18.1045 -12.335 29.7266v319.708c0 11.5693 4.0498 21.4961 12.335 29.7266
c8.23145 8.2959 18.082 12.3574 29.6943 12.3574h420.271c11.5586 0 21.4736 -4.06152 29.6943 -12.3574c8.34961 -8.23047 12.4004 -18.1572 12.4004 -29.7266z" />
    <glyph glyph-name="uniF156" unicode="&#xf156;" 
d="M486.4 328.192l-38.4004 -37.8887l22.0156 -22.0156l-50.1758 -29.6963l-11.2637 11.2646l-58.8799 -59.9043l31.7441 -195.584c2.55957 -13.8242 -7.16797 -25.0879 -20.9922 -25.0879h-313.856c-13.8242 0 -23.5518 11.2637 -20.9922 25.0879l66.0488 394.752
c2.55957 13.8242 15.8711 25.0879 29.6953 25.0879h166.4c13.8242 0 27.1357 -11.2637 29.1836 -25.0879l27.1367 -166.912l45.5674 46.0801l-11.2637 11.2637l29.1836 50.6885l22.0166 -22.0166l37.8877 38.4004zM113.152 90.624h61.9512v214.016
c0 13.8242 11.2646 25.0879 25.0889 25.0879h7.67969c13.8242 0 25.0879 -11.2637 25.0879 -25.0879v-2.04785h-39.9355v-22.0156h39.9355v-34.8164h-39.9355v-22.0156h39.9355v-34.8164h-39.9355v-22.0156h39.9355v-34.8164h-39.9355v-22.0156h39.9355v-1.02441
l72.7041 73.7285l-25.0879 164.352c-2.04785 13.8242 -15.3604 25.0879 -29.1846 25.0879h-93.6953c-13.8242 0 -27.1367 -11.2637 -29.1846 -25.0879l-36.8633 -231.424c-2.04883 -13.8242 7.67969 -25.0879 21.5039 -25.0879zM315.904 115.712l-5.12012 34.3037
l-58.8799 -59.3916h42.4961c13.8232 0 23.5518 11.2637 21.5039 25.0879z" />
    <glyph glyph-name="uniF10D" unicode="&#xf10d;" 
d="M440.2 119.7c-3.5 -13.9004 -15.7002 -23.7998 -30.2002 -23.7998h-250.2c-14.5 0 -27.2998 9.89941 -30.2002 23.7998l-63.8994 258.399h-31.2998c-17.5 0 -31.4004 14 -31.4004 31.4004s13.9004 31.2998 31.4004 31.2998h55.6992
c14.5 0 27.3008 -9.89941 30.8008 -23.7998l17.3994 -70.2998h355.9c2.89941 0 6.39941 -1.7002 8.09961 -4.10059c2.2998 -2.2998 2.90039 -5.7998 1.7998 -8.69922zM201.6 43.7002c29 0 52.2002 -23.2002 52.2002 -52.2998c0 -29 -23.2002 -52.2002 -52.2002 -52.2002
s-52.2998 23.2002 -52.2998 52.2002s23.2998 52.2998 52.2998 52.2998zM368.8 43.7002c29 0 52.2002 -23.2002 52.2002 -52.2998c0 -29 -23.2002 -52.2002 -52.2002 -52.2002s-52.2998 23.2002 -52.2998 52.2002s23.2998 52.2998 52.2998 52.2998z" />
    <glyph glyph-name="uniF129" unicode="&#xf129;" 
d="M278.104 263.146l130.364 116.896l-4.72852 4.83203l57.8818 62.2002l50.3779 -52.0225l-67.7529 -51.9189l-5.55176 5.75684l-130.364 -116.896c26.5254 -41.8438 41.2275 -77.9307 2.46777 -112.681c-20.0488 -17.8896 -49.2471 -14.8047 -70.5293 -28.1699
c-32.1797 -20.3574 -12.543 -66.416 -39.7881 -90.7832c-50.583 -45.2363 -107.849 -22.9268 -154.937 25.6006c-47.0869 48.6299 -66.1074 105.073 -15.5244 150.31c27.1426 24.3662 62.7148 10.0762 97.0537 31.666c21.1797 13.4688 14.291 47.7051 34.2363 65.6963
c38.7598 34.6475 75.2578 17.8896 116.794 -10.4863zM152.777 170.409c-15.0107 -13.3652 -15.833 -35.7783 -1.85059 -50.1719c13.8799 -14.3936 37.3203 -15.2158 52.2285 -1.74707c14.9072 13.3652 15.7295 35.7783 1.85059 50.1719
c-13.8799 14.3936 -37.3203 15.1133 -52.2285 1.74707z" />
    <glyph glyph-name="uniF162" unicode="&#xf162;" 
d="M469.504 251.904c12.7998 0 23.5518 -10.752 23.5518 -24.0645v-79.8721c0 -13.3115 -10.752 -24.0635 -24.0635 -24.0635h-412.672c-13.3125 0 -24.0645 10.752 -24.0645 24.0635v79.8721c0 13.3125 10.752 24.0645 24.0645 24.0645h413.184zM136.704 180.224v12.8008
c0 3.58398 -2.56055 6.65527 -6.14453 6.65527h-12.7998c-3.07129 0 -6.14355 -3.07129 -6.14355 -6.65527v-12.8008c0 -3.07129 2.55957 -6.14355 6.14355 -6.14355h12.7998c3.07227 0 6.14453 2.55957 6.14453 6.14355zM187.392 180.224v12.8008
c0 3.58398 -2.55957 6.65527 -6.14355 6.65527h-12.7998c-3.07227 0 -6.14453 -3.07129 -6.14453 -6.65527v-12.8008c0 -3.07129 2.56055 -6.14355 6.14453 -6.14355h12.7998c3.07227 0 6.14355 2.55957 6.14355 6.14355zM418.304 180.224h-0.511719v12.8008
c0 3.58398 -2.55957 6.65527 -6.14355 6.65527h-90.1123c-3.07227 0 -6.14453 -3.07129 -6.14453 -6.65527v-12.8008c0 -3.07129 2.56055 -6.14355 6.14453 -6.14355h90.624c3.07227 0 6.14355 2.55957 6.14355 6.14355zM469.504 95.7441
c12.7998 0 23.5518 -10.752 23.5518 -24.0645v-79.8721c0 -13.3115 -10.752 -24.0635 -24.0635 -24.0635h-412.672c-13.3125 0 -24.0645 10.752 -24.0645 24.0635v79.8721c0 13.3125 10.752 24.0645 24.0645 24.0645h413.184zM136.704 24.0645v12.7998
c0 3.58398 -2.56055 6.65527 -6.14453 6.65527h-12.7998c-3.07129 0 -6.14355 -3.07129 -6.14355 -6.65527v-12.7998c0 -3.07227 2.55957 -6.14453 6.14355 -6.14453h12.7998c3.07227 0 6.14453 2.56055 6.14453 6.14453zM187.392 24.0645v12.7998
c0 3.58398 -2.55957 6.65527 -6.14355 6.65527h-12.7998c-3.07227 0 -6.14453 -3.07129 -6.14453 -6.65527v-12.7998c0 -3.07227 2.56055 -6.14453 6.14453 -6.14453h12.7998c3.07227 0 6.14355 2.56055 6.14355 6.14453zM418.304 24.0645h-0.511719v12.7998
c0 3.58398 -2.55957 6.65527 -6.14355 6.65527h-90.1123c-3.07227 0 -6.14453 -3.07129 -6.14453 -6.65527v-12.7998c0 -3.07227 2.56055 -6.14453 6.14453 -6.14453h90.624c3.07227 0 6.14355 2.56055 6.14355 6.14453zM469.504 408.064
c12.7998 0 23.5518 -10.7529 23.5518 -24.0645v-79.8721c0 -13.3115 -10.752 -24.0635 -24.0635 -24.0635h-412.672c-13.3125 0 -24.0645 10.752 -24.0645 24.0635v79.8721c0 13.3115 10.752 24.0645 24.0645 24.0645h413.184zM136.704 336.384v12.7998
c0 3.58398 -2.56055 6.65625 -6.14453 6.65625h-12.7998c-3.07129 0 -6.14355 -3.07227 -6.14355 -6.65625v-12.7998c0 -3.07227 2.55957 -6.14355 6.14355 -6.14355h12.7998c3.07227 0 6.14453 2.55957 6.14453 6.14355zM187.392 336.384v12.7998
c0 3.58398 -2.55957 6.65625 -6.14355 6.65625h-12.7998c-3.07227 0 -6.14453 -3.07227 -6.14453 -6.65625v-12.7998c0 -3.07227 2.56055 -6.14355 6.14453 -6.14355h12.7998c3.07227 0 6.14355 2.55957 6.14355 6.14355zM418.304 336.384h-0.511719v12.7998
c0 3.58398 -2.55957 6.65625 -6.14355 6.65625h-90.1123c-3.07227 0 -6.14453 -3.07227 -6.14453 -6.65625v-12.7998c0 -3.07227 2.56055 -6.14355 6.14453 -6.14355h90.624c3.07227 0 6.14355 2.55957 6.14355 6.14355z" />
    <glyph glyph-name="uniF131" unicode="&#xf131;" 
d="M319 407h-227.8c1.89941 -1.2998 2.89941 -2.2002 4 -2.90039c27.7002 -15.6992 55.3994 -31.5996 83.2002 -47.0996c8.69922 -4.7998 12.5 -11.4004 12.5 -21.5c-0.200195 -89.0996 -0.100586 -178.2 -0.100586 -267.3c0 -1.7002 0.100586 -3.2998 0.200195 -5.2998
h127.4v97.7998h36.0996v-112.4c0 -14.8994 -6.40039 -21.2002 -21.5 -21.2002c-44.4004 -0.0996094 -88.7002 0 -133.1 0h-9.10059v-66.0996c0 -16.2002 -13.8994 -24.5996 -28.0996 -16.5996c-45.7998 25.7998 -91.6006 51.8994 -137.3 77.7998
c-3.60059 2 -7.2002 4.2998 -10.9004 5.89941c-7.90039 3.60059 -11.7998 9.40039 -11.7998 18.2002v376.601c0 13 7.2998 20.2998 20.2998 20.2998h311.5c12.5 0 20 -6.90039 20 -19.4004c0.0996094 -46.3994 0.0996094 -92.8994 0 -139.3
c0 -1.2998 -0.299805 -2.5 -0.5 -4h-35.0996c0.0996094 42.0996 0.0996094 84 0.0996094 126.5zM391.7 195.7h-72.4004c-7.7002 0 -15.5 -0.100586 -23.2002 0c-13.2998 0.299805 -23.8994 10 -24.8994 22.5c-1.10059 13.7998 7.7002 25.5 21.5996 27
c10.2998 1.09961 20.7002 0.599609 31.1006 0.599609c20.3994 0.100586 40.7998 0 61.1992 0h6.30078c0.0996094 2.60059 0.299805 4.7002 0.299805 6.90039c0 12.5 0.0996094 24.8994 0 37.3994c0 5.10059 1.2998 9.40039 6.09961 11.8008
c4.60059 2.2998 8.7002 0.799805 12.6006 -2l95.1992 -69.2002c8.40039 -6.10059 8.5 -13.7998 0.100586 -19.7998l-95.2002 -69.3008c-4.09961 -3 -8.2998 -4.39941 -13.0996 -2c-4.60059 2.40039 -5.80078 6.60059 -5.80078 11.4004v37.9004
c0.100586 2.09961 0.100586 4.09961 0.100586 6.7998z" />
    <glyph glyph-name="uniF107" unicode="&#xf107;" 
d="M296.4 240.8h96.5996l-274.2 -304.3l96.7002 207.2h-96.7002l274.2 304.3z" />
    <glyph glyph-name="uniF134" unicode="&#xf134;" 
d="M301.568 398.848c99.3281 -15.8721 175.104 -101.888 175.104 -205.312c0 -115.2 -93.1836 -208.384 -208.384 -208.384s-208.384 93.1836 -208.384 208.384c0 39.4238 10.752 76.2881 29.6953 107.52l-54.2715 54.2725l178.688 32.7676l-31.7432 -179.712
l-50.1768 50.1758c-9.72754 -19.4561 -14.8477 -41.4717 -14.8477 -65.0234c0 -83.4561 67.584 -151.552 151.04 -151.552s151.04 67.584 151.04 151.04c0 75.2637 -55.2959 137.216 -126.977 148.991z" />
    <glyph glyph-name="uniF145" unicode="&#xf145;" 
d="M507.5 -21.2998c0 -10.5 -3.7998 -19.5 -11.5 -27.2002s-16.7002 -11.5 -27.2002 -11.5c-10.8994 0 -20 3.7998 -27.2002 11.5l-103.699 103.4c-36.1006 -25 -76.3008 -37.5 -120.601 -37.5c-28.7998 0 -56.3994 5.59961 -82.7002 16.7998
c-26.2998 11.2002 -49 26.2998 -68 45.2998s-34.1992 41.7002 -45.2998 68c-11.2002 26.2998 -16.7998 53.9004 -16.7998 82.7002s5.59961 56.3994 16.7998 82.7002c11.2002 26.2998 26.2998 49 45.2998 68s41.7002 34.1992 68 45.2998
c26.3008 11.2002 53.9004 16.7998 82.7002 16.7998s56.4004 -5.59961 82.7002 -16.7998s49 -26.2998 68 -45.2998s34.2002 -41.7002 45.2998 -68c11.2002 -26.3008 16.7998 -53.9004 16.7998 -82.7002c0 -44.2998 -12.5 -84.5 -37.5 -120.601l103.7 -103.699
c7.5 -7.5 11.2002 -16.5 11.2002 -27.2002zM352.7 230.2c0 37.2998 -13.2002 69.2002 -39.7998 95.7002c-26.5 26.5 -58.4004 39.7998 -95.7002 39.7998s-69.2002 -13.2998 -95.7002 -39.7998s-39.7998 -58.4004 -39.7998 -95.7002s13.2002 -69.2002 39.7998 -95.7002
c26.5 -26.5 58.4004 -39.7998 95.7002 -39.7998s69.2002 13.2002 95.7002 39.7998c26.5996 26.5 39.7998 58.4004 39.7998 95.7002z" />
    <glyph glyph-name="uniF147" unicode="&#xf147;" 
d="M369.5 186zM137.5 186zM137.5 186zM256 417.5c124.54 0 225.5 -100.96 225.5 -225.5s-100.96 -225.5 -225.5 -225.5s-225.5 100.96 -225.5 225.5s100.96 225.5 225.5 225.5zM324.5 293.5c-19.3301 0 -35 -15.6699 -35 -35s15.6699 -35 35 -35s35 15.6699 35 35
s-15.6699 35 -35 35zM187.5 293.5c-19.3301 0 -35 -15.6699 -35 -35s15.6699 -35 35 -35s35 15.6699 35 35s-15.6699 35 -35 35zM256 44c60.2959 0 111.2 40.9521 126.381 96.5h-31.4521c-14.1279 -38.7539 -51.3486 -66.5 -94.9287 -66.5s-80.8008 27.7461 -94.9277 66.5
h-31.4521c15.1797 -55.5479 66.083 -96.5 126.38 -96.5z" />
    <glyph glyph-name="uniF11E" unicode="&#xf11e;" 
d="M256 -27.7998c-4.90039 0 -9.09961 1.7002 -12.5 5.09961l-176.7 170.5c-1.89941 1.5 -4.5 4 -7.7998 7.40039c-3.2998 3.39941 -8.5 9.59961 -15.7002 18.5996s-13.5996 18.2002 -19.2998 27.6006c-5.7002 9.39941 -10.7002 20.8994 -15.2002 34.2998
c-4.2998 13.2998 -6.5 26.2998 -6.5 38.8994c0 41.5 12 74 36 97.4004s57.1006 35.0996 99.4004 35.0996c11.7002 0 23.5996 -2 35.7998 -6.09961s23.5 -9.5 34 -16.4004c10.5 -6.89941 19.5 -13.3994 27 -19.3994s14.7002 -12.5 21.5 -19.2998
c6.7998 6.7998 14 13.1992 21.5 19.2998c7.5 6 16.5996 12.5 27 19.3994c10.5 6.90039 21.7998 12.4004 34 16.4004c12.2002 4.09961 24.0996 6.09961 35.7998 6.09961c42.2998 0 75.4004 -11.6992 99.4004 -35.0996s36 -55.9004 36 -97.4004
c0 -41.6992 -21.6006 -84.1992 -64.9004 -127.399l-176.3 -169.9c-3.40039 -3.39941 -7.59961 -5.09961 -12.5 -5.09961z" />
    <glyph glyph-name="uniF148" unicode="&#xf148;" 
d="M369.5 186zM137.5 186zM137.5 186zM256 417.5c124.54 0 225.5 -100.96 225.5 -225.5s-100.96 -225.5 -225.5 -225.5s-225.5 100.96 -225.5 225.5s100.96 225.5 225.5 225.5zM324.5 293.5c-19.3301 0 -35 -15.6699 -35 -35s15.6699 -35 35 -35s35 15.6699 35 35
s-15.6699 35 -35 35zM187.5 293.5c-19.3301 0 -35 -15.6699 -35 -35s15.6699 -35 35 -35s35 15.6699 35 35s-15.6699 35 -35 35zM351.606 97.2344v23.5996h-189.213v-23.5996h189.213z" />
    <glyph glyph-name="uniF13E" unicode="&#xf13e;" 
d="M478.4 247.9c8.59961 0 15.8994 -3 22 -9.10059c6.09961 -6.09961 9.09961 -13.3994 9.09961 -22v-47.7002c0 -8.59961 -3 -15.8994 -9.09961 -22c-6.10059 -6.09961 -13.4004 -9.09961 -22 -9.09961h-168.101v-167.6c0 -9.10059 -3 -16.6006 -9.09961 -22.6006
c-6.10059 -6.09961 -13.4004 -9.09961 -22 -9.09961h-47.7002c-8.59961 0 -15.9004 3 -22 9.09961c-6.09961 6 -9.09961 13.4004 -9.09961 22v168.2h-167.601c-9 0 -16.5996 2.90039 -22.7002 8.7998c-6 5.7998 -9.09961 13.2998 -9.09961 22.2998v47.7002
c0 8.60059 3 15.9004 9.09961 22c6.10059 6 13.4004 9.10059 22 9.10059h168.2v167.5c0 9.09961 3 16.5996 8.7998 22.6992c5.90039 6 13.3008 9.10059 22.4004 9.10059h47.7002c8.59961 0 15.8994 -3.10059 22 -9.10059c6.09961 -6.09961 9.09961 -13.3994 9.09961 -22
v-168.199h168.101z" />
    <glyph glyph-name="uniF123" unicode="&#xf123;" 
d="M415.8 259.5v-43.0996h-223.899c-16.9004 0 -34.5 -4.30078 -53 -12.8008s-33.2002 -19.1992 -44.1006 -32.1992l-90.7002 -106.4l-1.2998 -1.59961c0 0.699219 0 1.7998 -0.0996094 3.39941c-0.100586 1.5 -0.100586 2.60059 -0.100586 3.40039v258.2
c0 16.5 5.90039 30.6992 17.8008 42.5c11.7998 11.7998 26 17.7998 42.5 17.7998h86.0996c16.5 0 30.7002 -5.90039 42.5 -17.7998c11.7998 -11.8008 17.7998 -26 17.7998 -42.5v-8.60059h146.4c16.5 0 30.7002 -5.89941 42.5 -17.7998
c11.7002 -11.7998 17.5996 -26 17.5996 -42.5zM508.1 167c0 -5.59961 -2.7998 -11.5 -8.2998 -17.7998l-90.3994 -106.601c-7.7002 -9.19922 -18.5 -16.8994 -32.4004 -23.2998c-13.9004 -6.39941 -26.7998 -9.59961 -38.5996 -9.59961h-292.9
c-6.09961 0 -11.5 1.2002 -16.2998 3.5s-7.10059 6.2002 -7.10059 11.5996c0 5.60059 2.80078 11.5 8.30078 17.7998l90.3994 106.601c7.7002 9.09961 18.5 16.8994 32.4004 23.2998c13.8994 6.40039 26.7998 9.59961 38.5996 9.59961h292.8
c6.10059 0 11.5 -1.19922 16.3008 -3.5c4.7998 -2.39941 7.19922 -6.2998 7.19922 -11.5996z" />
    <glyph glyph-name="uniF149" unicode="&#xf149;" 
d="M369.5 186zM137.5 186zM137.5 186zM256 417.5c124.54 0 225.5 -100.96 225.5 -225.5s-100.96 -225.5 -225.5 -225.5s-225.5 100.96 -225.5 225.5s100.96 225.5 225.5 225.5zM324.5 293.5c-19.3301 0 -35 -15.6699 -35 -35s15.6699 -35 35 -35s35 15.6699 35 35
s-15.6699 35 -35 35zM187.5 293.5c-19.3301 0 -35 -15.6699 -35 -35s15.6699 -35 35 -35s35 15.6699 35 35s-15.6699 35 -35 35zM256.001 143c-49.8398 0 -91.917 -25.585 -104.465 -71.5h25.998c11.6777 32.0332 42.4443 46.7021 78.4668 46.7021
s66.7891 -14.668 78.4658 -46.7021h25.998c-12.5469 45.915 -54.623 71.5 -104.464 71.5z" />
    <glyph glyph-name="uniF130" unicode="&#xf130;" 
d="M129.4 283h-35.6006c-0.200195 1.40039 -0.5 2.7002 -0.5 4c0 47.2002 -0.0996094 94.4004 0 141.6c0 12.7002 7.60059 19.7002 20.4004 19.7002h316.6c13.2002 0 20.6006 -7.39941 20.6006 -20.7002v-382.699c0 -8.90039 -3.90039 -14.8008 -12 -18.5
c-3.80078 -1.7002 -7.40039 -4 -11.1006 -6c-46.5 -26.4004 -93 -52.8008 -139.6 -79.1006c-14.4004 -8.09961 -28.5 0.400391 -28.5 16.9004v67.2002h-144.601c-15.2998 0 -21.7998 6.39941 -21.8994 21.5996c-0.100586 33.5996 0 67.0996 0 100.7v13.5h36.7002v-99.2998
h129.5c0.0996094 2 0.199219 3.69922 0.199219 5.2998c0 90.5996 0.100586 181.1 -0.0996094 271.7c0 10.1992 3.90039 16.8994 12.7002 21.7998c28.2998 15.7998 56.3994 31.8994 84.5 47.8994c1.2002 0.700195 2.2002 1.5 4.09961 2.90039h-231.5
c0.100586 -43.2002 0.100586 -85.7002 0.100586 -128.5zM143.3 202.6h-67.2002c-7.19922 0 -14.3994 -0.0996094 -21.5996 0c-12.2998 0.200195 -22.2002 7.80078 -23.0996 17.6006c-1 10.7998 7.09961 20 20.0996 21.2002c9.5 0.899414 19.2998 0.5 28.9004 0.5h62.5996
c0.0996094 2 0.299805 3.69922 0.299805 5.39941c0 9.7998 0.100586 19.6006 0 29.2998c0 4 1.2002 7.40039 5.7002 9.30078c4.2998 1.7998 8.09961 0.599609 11.7998 -1.60059l88.5 -54.2998c7.7998 -4.7998 7.90039 -10.7998 0.100586 -15.5996
c-29.5 -18.2002 -59 -36.2002 -88.4004 -54.4004c-3.7998 -2.40039 -7.7002 -3.5 -12.2002 -1.59961c-4.2998 1.89941 -5.39941 5.19922 -5.39941 9v29.7998c-0.100586 1.7002 -0.100586 3.2998 -0.100586 5.39941z" />
    <glyph glyph-name="uniF127" unicode="&#xf127;" 
d="M0.888672 144.228c-3.16406 85.2051 69.8311 163.939 153.28 164.964c42.5244 3.71191 83.8828 -13.1699 116.054 -40.7041c-13.1914 -14.834 -26.6172 -29.5117 -40.9746 -43.2354c-28.3164 17.5928 -62.4355 31.0039 -95.5449 19.0928
c-53.4043 -15.5381 -85.7383 -80 -65.9766 -133.404c16.3555 -55.7725 82.7305 -86.3789 134.741 -62.9473c26.9365 9.86328 44.6855 35.2705 52.4795 62.5566c-30.8623 0.639648 -61.7383 0.241211 -92.6074 1.1084
c-0.0859375 18.7734 -0.164062 37.4756 -0.0859375 56.249c51.4844 0.0859375 103.04 0.242188 154.582 -0.234375c3.1709 -45.9873 -3.4707 -95.2178 -32.7119 -132.139c-40.0635 -52.6934 -114.076 -68.1602 -174.271 -47.4883
c-63.9004 21.4404 -110.351 87.2393 -108.971 156.182zM417.173 215.239h45.9238c0.0712891 -15.7158 0.227539 -31.4814 0.305664 -47.1826c15.3604 -0.15625 30.791 -0.234375 46.1514 -0.319336v-47.0049c-15.3604 -0.0927734 -30.791 -0.170898 -46.1514 -0.242188
c-0.15625 -15.7861 -0.227539 -31.4805 -0.305664 -47.2598c-15.3594 0.0712891 -30.7197 0 -46.0088 0c-0.142578 15.7861 -0.142578 31.4736 -0.298828 47.1748c-15.3594 0.15625 -30.791 0.234375 -46.1504 0.320312v47.0039
c15.3594 0.0927734 30.7197 0.170898 46.1504 0.327148c0.0859375 15.7012 0.242188 31.4736 0.391602 47.1826z" />
    <glyph glyph-name="uniF10C" unicode="&#xf10c;" 
d="M474.56 362.347c6.67773 -6.67773 6.67773 -17.6211 0 -24.2988l-133.888 -133.76c-6.67676 -6.65625 -6.67676 -17.6211 0 -24.3203l133.824 -133.803c6.67676 -6.67676 6.67676 -17.6211 0 -24.3193l-48.7471 -48.5762c-6.69824 -6.65625 -17.6641 -6.65625 -24.3623 0
l-133.781 133.781c-6.67773 6.67676 -17.6641 6.67676 -24.3418 0l-133.888 -133.696c-6.67773 -6.67676 -17.6641 -6.67676 -24.3418 0l-48.6826 48.6406c-6.67676 6.67676 -6.67676 17.6211 0 24.3193l133.931 133.739c6.67773 6.65527 6.67773 17.6211 0 24.3193
l-133.823 133.824c-6.69922 6.67773 -6.69922 17.6426 0 24.3203l48.7246 48.5967c6.7207 6.65625 17.6641 6.65625 24.3633 -0.0205078l133.76 -133.761c6.69824 -6.69824 17.6641 -6.69824 24.3418 -0.0214844l133.888 133.696c6.65625 6.65625 17.6211 6.65625 24.3408 0
z" />
    <glyph glyph-name="uniF108" unicode="&#xf108;" 
d="M350 -57.4004l-94 101l-94 -100.899v501.3h188v-501.4zM350 -57.4004zM162 -57.4004h0.0996094h-0.0996094z" />
    <glyph glyph-name="uniF132" unicode="&#xf132;" 
d="M280.4 -49.5996c-14.1006 -14.1006 -37 -14.1006 -51.1006 0l-163.7 163.8c-7.09961 7 -10.5996 16.2998 -10.5996 25.5s3.59961 18.5 10.5996 25.5c14 14.0996 36.9004 14.0996 51 0l102.2 -102.2v346.9c0 19.8994 16.2002 36.0996 36.1006 36.0996
c19.8994 0 36.0996 -16.2002 36.0996 -36.0996v-346.9l102.2 102.2c14.0996 14.0996 36.8994 14.0996 51 0c14.0996 -14 14.0996 -36.9004 0 -51z" />
    <glyph glyph-name="uniF135" unicode="&#xf135;" 
d="M117.954 231.576h-0.663086l-0.564453 -0.442383l1.21387 0.427734zM459.335 251.466c19.1543 -94.8047 8.58301 -176.941 -23.6201 -183.446c-4.24414 -0.860352 -8.65918 -0.323242 -13.1689 1.41211c-1.74512 0.424805 -3.40527 1.12793 -4.875 2.26953
l-0.415039 0.292969c-2.25 1.3125 -4.50488 2.90918 -6.77344 4.78125c-64.3271 42.3623 -189.069 39.7822 -189.069 39.7822c-20.0918 -19.1582 1.87207 -32.707 1.87207 -32.707l-0.46875 -17.291c4.67188 -11.2168 14.4854 -19.1582 14.4854 -19.1582l3.27441 -22.4287
c16.3623 -5.13574 10.2773 -24.3037 10.2773 -24.3037c-6.07422 1.87207 -2.80469 -7.94238 -2.80469 -7.94238c10.748 -5.60547 1.87207 -16.8174 1.87207 -16.8174c-60.7451 -8.41113 -68.2227 38.3125 -68.2227 38.3125
c-2.80566 51.4004 -23.3662 78.3613 -23.3662 78.3613c-5.17285 10.833 -24.7461 12.1816 -34.8984 13.1738c-0.639648 0.0595703 -1.2627 0.104492 -1.88477 0.149414h0.0722656s-73.333 59.3467 -3.67969 125.648c3.20117 1.12305 6.39453 2.20117 9.55664 3.2207
c124.332 40.1113 192.848 111.076 209.783 130.393c5.1543 26.2305 15.0537 43.3594 29.0488 46.1816c32.2012 6.5127 73.8369 -65.0703 93.0049 -159.884zM360.737 109.012c8.00977 -2.33594 29.7568 -6.72363 34.6201 -14.1299c0 0 -1.11816 1.89062 -2.99902 5.3584
c0.324219 -0.361328 0.639648 -0.731445 0.892578 -1.10547c0 0 -3.89551 6.58008 -9.62402 18.1934c-18.9365 39.3135 -53.4609 125.22 -46.3223 217.193c0.636719 7.14746 1.47461 14.3232 2.66504 21.5166c-0.0449219 -0.288086 -0.179688 -0.649414 -0.310547 -1.01953
c0.244141 1.66504 0.4375 3.32031 0.712891 4.98438c-1.02832 -6.25488 -21.8691 -30.0283 -26.2305 -33.5771c-21.5898 -17.54 -44.0264 -34.0684 -67.542 -48.9336c-13.9727 -8.83984 -29.541 -15.2529 -43.0342 -24.8369
c-10.1309 -7.19336 -16.4805 -18.04 -21.833 -29.0352c-10.7754 -22.1445 -10.0352 -46.8184 3.10645 -67.9346c5.07324 -8.14844 11.793 -15.0352 19.7852 -20.3486c6.61133 -4.3877 20.4033 -13.1865 28.5479 -12.9893
c28.7334 0.695312 57.7773 -0.797852 86.2314 -4.84766c13.9219 -1.98535 27.8125 -4.55469 41.334 -8.48828zM404.872 129.249c13.3086 3.11621 13.8408 49.5693 1.16797 103.763c-12.6816 54.2012 -33.7529 95.6074 -47.0713 92.5l-0.0712891 -0.03125
c-1.26758 0.382812 -2.50391 0.563477 -3.66211 0.292969c-13.3135 -3.12109 -13.8418 -49.5742 -1.16797 -103.771c12.6777 -54.1973 33.748 -95.6025 47.0703 -92.4961l0.0722656 0.0361328c1.2666 -0.382812 2.49805 -0.564453 3.66211 -0.292969zM117.558 106.158
c1.8623 0 3.68945 0.193359 5.49316 0.480469c-7.7207 -5.00586 -16.5107 -7.87402 -25.8555 -7.87402c-30.5869 0 -55.3838 30.4072 -55.3838 67.9121c0 37.501 24.7969 67.9072 55.3838 67.9072c6.08887 0 11.9287 -1.25391 17.4082 -3.47656
c-24.0371 -2.0791 -43.0742 -29.1709 -43.0742 -62.373c0 -34.5605 20.6055 -62.5762 46.0283 -62.5762z" />
    <glyph glyph-name="uniF159" unicode="&#xf159;" 
d="M423.025 278.656c-13.7666 -8.16406 -29.0127 -14.0801 -45.2402 -17.2803c-12.9922 13.8457 -31.5166 22.4854 -52.0039 22.4854c-39.3457 0 -71.2529 -31.8789 -71.2529 -71.2178c0 -5.5752 0.625 -11.0225 1.84863 -16.2275
c-59.207 2.97266 -111.716 31.3311 -146.858 74.418c-6.12988 -10.5244 -9.64258 -22.7559 -9.64258 -35.8047c0 -24.7109 12.5859 -46.5068 31.7012 -59.2783c-11.6836 0.383789 -22.6709 3.57715 -32.2852 8.91699v-0.888672
c0 -34.5029 24.5625 -63.2891 57.1592 -69.8311c-5.9873 -1.62109 -12.2734 -2.48828 -18.7734 -2.48828c-4.60059 0 -9.06641 0.447266 -13.418 1.2793c9.07324 -28.3018 35.3916 -48.8887 66.5742 -49.457c-24.3916 -19.1006 -55.1113 -30.4785 -88.4912 -30.4785
c-5.73828 0 -11.4199 0.333984 -16.9951 0.995117c31.5381 -20.21 68.9775 -32 109.227 -32c131.058 0 202.717 108.516 202.717 202.61c0 3.0791 -0.0712891 6.15039 -0.213867 9.20898c13.9238 10.0264 26.0059 22.5703 35.5557 36.8496
c-12.7715 -5.66113 -26.5098 -9.48633 -40.917 -11.207c14.7051 8.80371 26.0264 22.7549 31.3242 39.3955z" />
    <glyph glyph-name="uniF14C" unicode="&#xf14c;" 
d="M10.4004 437.6zM19.7998 46.2002c1.5 3.7002 4.2002 5.5 8.2002 5.5h52.5996v377.1c0 2.60059 0.800781 4.7002 2.5 6.2998c1.60059 1.60059 3.7002 2.5 6.30078 2.5h52.5996c2.59961 0 4.7002 -0.799805 6.2998 -2.5c1.60059 -1.59961 2.5 -3.69922 2.5 -6.2998v-377.1
h52.6006c2.59961 0 4.69922 -0.799805 6.2998 -2.5c1.59961 -1.60059 2.5 -3.7002 2.5 -6.2998c0 -2.2002 -0.900391 -4.40039 -2.7002 -6.60059l-87.5 -87.3994c-1.7998 -1.60059 -3.90039 -2.5 -6.2998 -2.5c-2.2002 0 -4.2998 0.799805 -6.2998 2.5l-87.7002 87.6992
c-2.7002 2.90039 -3.40039 6.10059 -1.90039 9.60059zM256 7.7998c0 2.60059 0.799805 4.7002 2.5 6.2998c1.59961 1.60059 3.7002 2.5 6.2998 2.5h70.2002c2.59961 0 4.7002 -0.799805 6.2998 -2.5c1.60059 -1.59961 2.5 -3.69922 2.5 -6.2998v-52.5996
c0 -2.60059 -0.799805 -4.7002 -2.5 -6.2998c-1.59961 -1.60059 -3.7002 -2.5 -6.2998 -2.5h-70.2002c-2.59961 0 -4.7002 0.799805 -6.2998 2.5c-1.59961 1.59961 -2.5 3.69922 -2.5 6.2998v52.5996zM256 95.5v52.5996c0 2.60059 0.799805 4.7002 2.5 6.30078
c1.59961 1.59961 3.7002 2.5 6.2998 2.5h122.8c2.60059 0 4.7002 -0.800781 6.30078 -2.5c1.59961 -1.60059 2.5 -3.7002 2.5 -6.30078v-52.5996c0 -2.59961 -0.800781 -4.7002 -2.5 -6.2998c-1.7002 -1.60059 -3.7002 -2.5 -6.30078 -2.5h-122.8
c-2.59961 0 -4.7002 0.799805 -6.2998 2.5c-1.7002 1.7002 -2.5 3.7998 -2.5 6.2998zM256 235.8v52.6006c0 2.59961 0.799805 4.69922 2.5 6.2998c1.59961 1.59961 3.7002 2.5 6.2998 2.5h175.4c2.59961 0 4.7002 -0.799805 6.2998 -2.5
c1.59961 -1.60059 2.5 -3.7002 2.5 -6.2998v-52.6006c0 -2.59961 -0.799805 -4.7002 -2.5 -6.2998c-1.59961 -1.59961 -3.7002 -2.5 -6.2998 -2.5h-175.4c-2.59961 0 -4.7002 0.799805 -6.2998 2.5c-1.7002 1.7002 -2.5 3.7998 -2.5 6.2998zM256 376.2v52.5996
c0 2.60059 0.799805 4.7002 2.5 6.2998c1.59961 1.60059 3.7002 2.5 6.2998 2.5h228c2.60059 0 4.7002 -0.799805 6.2998 -2.5c1.60059 -1.59961 2.5 -3.69922 2.5 -6.2998v-52.5996c0 -2.60059 -0.799805 -4.7002 -2.5 -6.2998
c-1.69922 -1.60059 -3.69922 -2.5 -6.2998 -2.5h-228c-2.59961 0 -4.7002 0.799805 -6.2998 2.5c-1.59961 1.69922 -2.5 3.69922 -2.5 6.2998z" />
    <glyph glyph-name="uniF139" unicode="&#xf139;" 
d="M428.1 272.7l-288.399 -288.7l-139.101 -45.7002l45.6006 139.2l288.7 288.4zM343.5 296.3c4.5 4.40039 4.5 9.2002 0 14.2998c-2.2002 2.2002 -4.7002 3.30078 -7.5 3.30078s-5 -1.10059 -6.7998 -3.30078l-229.7 -229.1c-2.2002 -2.2002 -3.2998 -4.7002 -3.2998 -7.5
s1.09961 -5.2998 3.2998 -7.5c1.7998 -1.7998 4.2002 -2.59961 7.2998 -2.59961c2.60059 0 5 0.799805 7 2.59961zM500.3 400.8c7.7998 -7.7002 11.7002 -17.0996 11.7002 -28.0996s-3.90039 -20.2002 -11.7002 -27.7998l-39.5996 -39.6006l-93.2998 93.2002
l39.6992 39.7002c7.7002 7.7002 17 11.5996 27.9004 11.5996s20.2002 -3.89941 28 -11.5996l19 -18.2998z" />
    <glyph glyph-name="uniF12D" unicode="&#xf12d;" 
d="M416.434 160.389c7.60742 -5.73047 15.9512 -10.2725 25.0332 -13.623c9.08203 -3.34961 18.6172 -5.22266 28.6641 -5.56152v-75.4385c0 -11.6357 -2.32617 -22.6465 -6.97852 -32.9785c-4.65625 -10.2744 -10.8438 -19.2998 -18.6191 -27.1328
c-7.83398 -7.77637 -16.8008 -13.9072 -27.0215 -18.5049c-10.2168 -4.54102 -21.2285 -6.8125 -33.0918 -6.8125h-299.141c-11.6641 0 -22.7627 2.27148 -33.2344 6.8125c-10.4727 4.59766 -19.5254 10.7285 -27.1309 18.5049
c-7.60742 7.83301 -13.6816 16.8564 -18.2227 27.1328c-4.54102 10.3301 -6.81152 21.3428 -6.81152 32.9785v256.596c0 11.6924 2.27051 22.7617 6.81152 33.2617c4.54102 10.502 10.6143 19.5273 18.2227 27.1328c7.60449 7.60742 16.6582 13.6797 27.1309 18.2207
s21.5703 6.8125 33.2344 6.8125h161.973c-0.395508 -2.61133 -0.765625 -5.16602 -1.13477 -7.66406c-0.369141 -2.49609 -0.539062 -5.2207 -0.539062 -8.17383v-24.5215c0 -4.25586 0.539062 -8.68359 1.67383 -13.3379h-161.973
c-8.71289 0 -16.1768 -3.12305 -22.3936 -9.31055c-6.21484 -6.24414 -9.30859 -13.6807 -9.30859 -22.4199v-256.598c0 -8.68457 3.09375 -16.1768 9.30859 -22.3623c6.2168 -6.24414 13.6807 -9.36621 22.3936 -9.36621h299.141
c8.68359 0 16.2344 3.12207 22.5352 9.36621c6.30078 6.1875 9.47852 13.6797 9.47852 22.3623v94.625zM512.703 367.998v-136.344c0 -4.6543 -1.64648 -8.5166 -4.88086 -11.6934c-3.23633 -3.12305 -6.86914 -4.54102 -10.9551 -4.14453h-23.9551
c-4.6543 0 -8.51367 1.53223 -11.5781 4.54102c-3.06641 3.06543 -4.54102 6.86816 -4.54102 11.2969v74.5859l-214.848 -214.308c-2.95117 -2.9502 -6.72754 -4.42773 -11.2686 -4.42773s-8.39941 1.47754 -11.5508 4.42773l-21.9668 22.251
c-2.98047 3.00977 -4.51465 6.8125 -4.59863 11.4092c-0.0859375 4.6543 1.44727 8.45801 4.59863 11.4092l214.224 214.875h-74.8135c-4.65332 0 -8.45703 1.5332 -11.4072 4.59766c-3.01074 3.06641 -4.48438 6.86914 -4.48438 11.5234v23.9531
c-0.341797 4.25781 1.07812 7.94727 4.3125 11.127c3.29297 3.12109 7.15039 4.71094 11.5791 4.71094h160.3c4.19922 0 7.94434 -1.58984 11.125 -4.88281c3.12109 -3.23438 4.71094 -6.92383 4.71094 -10.9551z" />
    <glyph glyph-name="uniF110" unicode="&#xf110;" 
d="M0 192c0 46.4434 11.4434 89.2773 34.3291 128.504s53.9395 70.2822 93.167 93.167c39.2256 22.8857 82.0596 34.3291 128.503 34.3291s89.2783 -11.4434 128.505 -34.3291s70.2812 -53.9404 93.167 -93.167s34.3291 -82.0605 34.3291 -128.504
s-11.4434 -89.2783 -34.3291 -128.504c-22.8857 -39.2275 -53.9404 -70.2812 -93.167 -93.167s-82.0605 -34.3291 -128.505 -34.3291c-46.4434 0 -89.2773 11.4434 -128.503 34.3291c-39.2275 22.8857 -70.2812 53.9395 -93.167 93.167
c-22.8857 39.2256 -34.3291 82.0605 -34.3291 128.504z" />
    <glyph glyph-name="uniF120" unicode="&#xf120;" 
d="M85.79 364.428c0 -7.57031 -1.8916 -14.4629 -5.65039 -20.624c-3.8125 -6.15527 -8.92676 -11.4121 -15.3955 -15.6465v-335.649c0 -2.99219 -1.01758 -5.47852 -3.02246 -7.625c-2.0332 -2.14551 -4.54883 -3.16406 -7.48535 -3.16406h-21.6104
c-2.96484 0 -5.39746 1.01855 -7.34473 3.16406c-1.9209 2.14648 -2.91016 4.63281 -2.91016 7.625v335.649c-6.46777 4.23438 -11.666 9.49121 -15.6475 15.6465c-3.95508 6.16016 -5.93457 13.0537 -5.93457 20.624c0 11.6387 4.1543 21.6367 12.459 30.0576
c8.30469 8.41602 18.3613 12.5967 30.1689 12.5967c11.6387 0 21.6113 -4.18066 29.9141 -12.5967c8.30664 -8.4209 12.459 -18.4189 12.459 -30.0576zM493.216 358.327c5.33984 2.99219 9.68848 3.50195 12.9941 1.69531
c3.33594 -1.86621 5.00098 -5.82227 5.00098 -11.9238v-207.172c0 -5.70801 -1.72461 -11.6387 -5.14355 -17.8525c-3.41504 -6.21484 -7.70801 -10.7344 -12.8535 -13.7314c-20.875 -12.542 -40.001 -20.6191 -57.3428 -24.2324
c-17.3467 -3.5625 -32.4873 -5.03125 -45.4238 -4.29395c-15.1406 0.790039 -28.5322 3.8418 -40.1426 9.14941c-9.4375 4.97461 -18.6143 9.77246 -27.5693 14.292c-8.95703 4.52148 -18.1338 8.47656 -27.541 11.9229c-9.43848 3.3916 -19.3525 6.10352 -29.7754 8.1377
c-10.4512 2.03223 -21.9482 3.05078 -34.4912 3.05078c-10.1689 -0.338867 -21.6084 -2.0332 -34.3496 -4.97168c-10.9043 -2.60059 -24.125 -6.7793 -39.7471 -12.4883c-15.5928 -5.70312 -32.9941 -13.8398 -52.2031 -24.3496
c-5.33691 -2.9375 -9.83008 -3.33594 -13.417 -1.12988c-3.61621 2.26172 -5.42285 6.38184 -5.42285 12.4844v206.326c0 6.10156 1.80762 12.2041 5.42285 18.251c3.58594 6.10156 8.0791 10.6211 13.417 13.6123c19.209 10.1152 36.5557 18.0791 52.0635 23.7881
c15.5068 5.76367 28.8125 9.88574 39.8867 12.4834c12.9375 2.93848 24.3789 4.5791 34.3496 4.97168c12.543 0 24.041 -1.0166 34.4912 -3.05078c10.4258 -2.03418 20.3379 -4.74609 29.7754 -8.18945c9.40723 -3.39062 18.5283 -7.3457 27.3975 -11.8643
c8.87109 -4.52051 18.1074 -9.26562 27.7129 -14.2949c11.6084 -5.36523 25.002 -8.41602 40.1426 -9.09473c12.9365 -0.791016 28.0771 0.678711 45.4238 4.29492c17.3438 3.55566 36.4697 11.6367 57.3447 24.1797z" />
    <glyph glyph-name="uniF137" unicode="&#xf137;" 
d="M200.5 0.400391c-2.2998 -1.80078 -4.7002 -3 -7.59961 -3c-2.90039 0 -5.30078 1.19922 -7.60059 3l-180 179.899c-4.09961 4.10059 -4.09961 11.2002 0 15.2998l74.1006 74.1006c4.09961 4.09961 11.1992 4.09961 15.2998 0l98.2002 -98.7998l225.1 225.699
c4.09961 4.10059 11.2002 4.10059 15.2998 0l74.1006 -74.0996c4.09961 -4.09961 4.09961 -11.2002 0 -15.2998z" />
    <glyph glyph-name="uniF143" unicode="&#xf143;" 
d="M499.3 -60.5996h-74.0996c-5.90039 0 -10.6006 4.69922 -10.6006 10.5996c0 222.3 -180 402.3 -402.3 402.3c-5.7998 0 -10.5 4.7002 -10.5 10.5v74.1006c0 5.89941 4.7002 10.5996 10.6006 10.5996c274.6 0 497.5 -222.9 497.5 -497.5
c0 -5.90039 -4.7002 -10.5996 -10.6006 -10.5996zM340.6 -60.5996h-74.0996c-5.90039 0 -10.5996 4.69922 -10.5996 10.5996c0 134.7 -108.801 243.5 -243.5 243.5c-5.90039 0 -10.6006 4.7002 -10.6006 10.5996v74.1006c0 5.89941 4.7002 10.5996 10.6006 10.5996
c187 0 338.8 -151.7 338.8 -338.8c-0.100586 -5.90039 -4.7998 -10.5996 -10.6006 -10.5996zM81.2002 -60.5996c-44.1006 0 -79.4004 35.2998 -79.4004 79.3994c0 44.1006 35.2998 79.4004 79.4004 79.4004c44.0996 0 79.3994 -35.2998 79.3994 -79.4004
c0 -44.0996 -35.2998 -79.3994 -79.3994 -79.3994z" />
    <glyph glyph-name="uniF12B" unicode="&#xf12b;" 
d="M255.5 447.5c141.106 0 255.5 -114.387 255.5 -255.5s-114.394 -255.5 -255.5 -255.5s-255.5 114.387 -255.5 255.5s114.394 255.5 255.5 255.5zM288.29 368.363c-26.9961 -0.111328 -41.0166 -23.1143 -41.0518 -40.5537
c0.131836 -20.2373 11.8311 -34.1475 30.5723 -34.1475h0.610352c23.9043 0.0761719 41.0303 20.4805 41.0303 42.043c0 8.31836 -2.3916 16.4258 -7.62402 22.5811c-5.20508 6.1748 -13.3076 10.1191 -23.5371 10.0771zM319.23 81.9453l1.83691 2.0498l-1.49707 2.29395
l-10.666 23.4062l-3.05664 -2.77344c-12.9268 -11.8936 -32.8945 -25.5879 -35.8955 -25.9492c-0.138672 0.4375 -0.338867 1.37207 -0.326172 2.80762c0 2.54395 0.541016 6.56348 1.87891 12.0664l28.126 114.471c2.45996 10.666 3.78418 27.1123 3.78418 34.9932
c0 7.22266 -1.0752 13.2314 -3.80566 17.8545c-2.66113 4.68457 -7.61035 7.58887 -13.2861 7.49902c-19.8848 -0.249023 -63.2383 -26.9824 -99.3135 -60.3467l-1.95508 -1.81641l9.98145 -27.0986l3.40332 2.54395c9.62598 7.48438 29.1221 21.7627 33.5586 23.3633
c-0.0419922 -2.23145 -0.728516 -6.5625 -1.96875 -12.7246l-25.6377 -110.437c-2.90332 -12.1221 -4.18555 -28.8945 -4.18555 -36.6572c0 -10.1543 2.21777 -17.2656 6.50098 -21.9297c4.26953 -4.63672 10.1543 -6.14062 15.8369 -6.14062h0.104492
c16.7725 0.214844 60.8457 23.5029 96.582 62.5244z" />
    <glyph glyph-name="uniF140" unicode="&#xf140;" 
d="M507 191.7c0 -6.40039 -1.90039 -12.7998 -5.59961 -19.2998c-26.1006 -43 -61.3008 -77.3008 -105.4 -103.2c-44.0996 -25.9004 -90.7998 -38.7998 -139.9 -38.7998c-49.0996 0 -95.6992 13 -139.899 38.8994c-44.1006 26 -79.2998 60.2998 -105.4 103.101
c-3.7002 6.5 -5.59961 12.8994 -5.59961 19.2998c0 6.2998 1.89941 12.7998 5.59961 19.2998c26.1006 42.7998 61.2998 77.0996 105.4 103.1c44.2002 25.9004 90.7998 38.9004 139.899 38.9004c49.1006 0 95.7002 -13 139.9 -38.9004
c44.0996 -26 79.2998 -60.2998 105.4 -103.1c3.69922 -6.5 5.59961 -13 5.59961 -19.2998zM471.1 191.7c-28.3994 44.0996 -63.8994 77 -106.699 98.8994c11.3994 -19.3994 17.0996 -40.3994 17.0996 -63c0 -34.5 -12.2998 -64.0996 -36.7998 -88.5996
s-54.1006 -36.7998 -88.6006 -36.7998s-64.0996 12.2002 -88.5996 36.7998s-36.7998 54.0996 -36.7998 88.5996c0 22.6006 5.7002 43.6006 17.0996 63c-42.7998 -21.7998 -78.2998 -54.7998 -106.7 -98.8994c24.8008 -38.2998 55.9004 -68.7002 93.4004 -91.4004
c37.4004 -22.7002 77.9004 -34 121.6 -34c43.7002 0 84.2002 11.4004 121.601 34c37.5 22.7002 68.5996 53.1006 93.3994 91.4004zM265.6 289.7c2.60059 2.59961 3.90039 5.7998 3.90039 9.5s-1.2998 6.89941 -3.90039 9.5c-2.59961 2.59961 -5.7998 3.89941 -9.5 3.89941
c-23.3994 0 -43.3994 -8.2998 -60.0996 -25c-16.7002 -16.6992 -25.0996 -36.6992 -25.0996 -60.0996c0 -3.7998 1.2998 -6.90039 3.89941 -9.5c2.60059 -2.7002 5.7998 -3.90039 9.60059 -3.90039c3.69922 0 6.89941 1.30078 9.5 3.90039
c2.59961 2.59961 3.89941 5.7998 3.89941 9.5c0 16 5.7002 29.7998 17.1006 41.2002c11.3994 11.3994 25.0996 17.0996 41.1992 17.0996c3.7002 0 6.90039 1.2998 9.5 3.90039z" />
    <glyph glyph-name="uniF133" unicode="&#xf133;" 
d="M229.4 435.4c14.0996 14.0996 37 14.0996 51.0996 0l163.7 -163.801c7.09961 -7 10.5996 -16.2998 10.5996 -25.5c0 -9.19922 -3.59961 -18.5 -10.5996 -25.5c-14 -14.0996 -36.9004 -14.0996 -51 0l-102.2 102.2v-346.899
c0 -19.9004 -16.2002 -36.1006 -36.0996 -36.1006c-19.9004 0 -36.1006 16.2002 -36.1006 36.1006v346.899l-102.2 -102.2c-14.0996 -14.0996 -36.8994 -14.0996 -51 0c-14.0996 14 -14.0996 36.9004 0 51z" />
    <glyph glyph-name="uniF151" unicode="&#xf151;" 
d="M349.7 136.3l94.2002 91.4004l-129.9 19.0996l-58.2002 117.5l-58.2002 -117.5l-129.8 -19.0996l94.2002 -91.4004l-22.5 -129.6l116.3 61.2998l116 -61.2002zM511.9 246.2c0 -4.5 -2.7002 -9.40039 -8 -14.7998l-111.7 -108.9l26.5 -153.9
c0.200195 -1.39941 0.299805 -3.5 0.299805 -6.19922c0 -10.3008 -4.2002 -15.4004 -12.5996 -15.4004c-3.90039 0 -8 1.2002 -12.3008 3.7002l-138.199 72.5996l-138.2 -72.5996c-4.5 -2.5 -8.60059 -3.7002 -12.2998 -3.7002c-4.30078 0 -7.5 1.5 -9.7002 4.5
s-3.2002 6.59961 -3.2002 10.9004c0 1.19922 0.200195 3.2998 0.599609 6.19922l26.5 153.9l-112.1 108.9c-5.09961 5.5 -7.7002 10.5 -7.7002 14.7998c0 7.59961 5.7002 12.2998 17.2002 14.0996l154.5 22.5l69.2002 140c3.89941 8.40039 8.89941 12.6006 15.0996 12.6006
s11.2002 -4.2002 15.1006 -12.6006l69.1992 -140l154.5 -22.5c11.5 -1.7998 17.3008 -6.5 17.3008 -14.0996z" />
    <glyph glyph-name="uniF105" unicode="&#xf105;" 
d="M246.2 356c2.2998 2.90039 5.2002 4.09961 8.09961 4.09961c2.90039 0 6.40039 -1.19922 8.10059 -4.09961l240.199 -292.4c2.30078 -2.89941 2.90039 -7 1.2002 -11c-1.7002 -3.5 -5.2002 -5.7998 -9.2998 -5.7998h-480.3c-4.10059 0 -7.5 2.2998 -9.2998 5.7998
c-1.7002 4.10059 -1.2002 8.10059 1.19922 11z" />
    <glyph glyph-name="uniF122" unicode="&#xf122;" 
d="M507.9 261.1v-214c0 -18.5996 -6.7002 -34.5996 -20.1006 -48c-13.3994 -13.3994 -29.3994 -20.0996 -48 -20.0996h-369.6c-18.6006 0 -34.6006 6.7002 -48 20.0996c-13.4004 13.4004 -20.1006 29.4004 -20.1006 48v291.801c0 18.5996 6.7002 34.5996 20.1006 48
c13.3994 13.3994 29.3994 20.0996 48 20.0996h97.2998c18.5996 0 34.5996 -6.7002 48 -20.0996c13.4004 -13.4004 20.0996 -29.4004 20.0996 -48v-9.7002h204.2c18.6006 0 34.6006 -6.7002 48 -20.1006c13.4004 -13.3994 20.1006 -29.3994 20.1006 -48zM469 47.0996v214
c0 8.10059 -2.7998 15 -8.5 20.7002s-12.5996 8.5 -20.7002 8.5h-214c-8.09961 0 -15 2.7998 -20.7002 8.5c-5.69922 5.7002 -8.5 12.6006 -8.5 20.7002v19.5c0 8.09961 -2.7998 15 -8.5 20.7002c-5.69922 5.7002 -12.5996 8.5 -20.6992 8.5h-97.2002
c-8.10059 0 -15 -2.7998 -20.7002 -8.5c-5.59961 -5.7998 -8.5 -12.7002 -8.5 -20.7998v-291.801c0 -8.09961 2.7998 -15 8.5 -20.6992c5.7002 -5.7002 12.5996 -8.5 20.7002 -8.5h369.6c8.10059 0 15 2.7998 20.7002 8.5c5.59961 5.69922 8.5 12.5996 8.5 20.6992z" />
    <glyph glyph-name="uniF15B" unicode="&#xf15b;" 
d="M277.973 368.729c49.9385 -11.46 90.2051 -49.7285 103.662 -101.454s-3.78516 -105.344 -40.2666 -139.827c11.46 34.4834 11.46 80.4268 -1.89258 128.368c-9.67188 47.835 -34.5889 87.9961 -61.5029 112.913zM314.454 447.264
c71.0703 -23.0234 130.576 -80.4268 151.603 -156.964c21.1318 -78.5352 -1.89258 -157.069 -51.7256 -212.58c24.917 55.5107 30.6992 128.263 11.46 201.016c-21.1318 72.752 -63.291 134.045 -111.337 168.528zM228.876 71.5166v-22.8135
c97.248 -7.14941 171.577 -55.6152 171.577 -112.703h-400.453c0 57.0879 74.3291 104.188 171.578 112.703v22.8135c-31.4355 17.1367 -57.1934 61.3984 -57.1934 105.659c0 71.2812 0 128.368 85.8945 128.368c85.7891 0 85.7891 -57.0869 85.7891 -128.368
c0 -44.2607 -25.7578 -88.5225 -57.1924 -105.659z" />
    <glyph glyph-name="uniF160" unicode="&#xf160;" 
d="M484.054 322.986c6.82617 -6.82617 10.2393 -14.9326 10.2393 -24.7461s-3.41309 -18.1338 -10.2393 -25.1738l-110.507 -110.293l41.3867 -41.3867l-44.1602 -44.1602c-30.0801 -29.8662 -65.9199 -47.1465 -107.521 -51.4131
c-41.5996 -4.2666 -79.3594 4.90625 -113.493 27.7334l-99.8398 -99.8398h-49.9199v49.9199l99.8398 99.8398c-22.8262 34.1328 -32 71.8936 -27.7334 113.493s21.5469 77.4404 51.4131 107.521l44.1602 44.1592l41.3867 -41.3867l110.294 110.507
c7.04004 6.82715 15.3594 10.2402 25.1729 10.2402s17.9199 -3.41309 24.7471 -10.2402c6.82617 -6.82617 10.2393 -15.1465 10.2393 -24.96s-3.41309 -18.1328 -10.2393 -24.96l-110.294 -110.507l64.6406 -64.6396l110.507 110.293
c7.03906 6.82715 15.3594 10.2402 25.1729 10.2402s17.9199 -3.41309 24.7471 -10.2402z" />
    <glyph glyph-name="uniF142" unicode="&#xf142;" 
d="M408.3 215.7c6.40039 -6.2998 9.7002 -13.9004 9.7002 -22.4004c0 -8.59961 -3.2002 -16.2002 -9.7002 -22.5l-222.3 -222.1c-6.40039 -6.2998 -13.7998 -9.60059 -22.2998 -9.60059c-8.40039 0 -15.9004 3.2002 -22.2998 9.60059l-33.1006 33.0996
c-6.39941 6.5 -9.59961 13.9004 -9.59961 22.4004s3.2002 15.8994 9.59961 22.2998l168.101 168l-168.2 166.2c-6.40039 6.2998 -9.60059 13.7998 -9.60059 22s3.2002 15.5 9.60059 22l33.0996 33.7002c6.40039 6.2998 13.9004 9.59961 22.5 9.59961
c8.60059 0 16 -3.2002 22.1006 -9.59961z" />
    <glyph glyph-name="uniF12A" unicode="&#xf12a;" 
d="M49.5996 324.8c-25.0996 0 -45.7998 16 -45.7998 35.5s20.7002 35.5 45.7998 35.5h411.9c25.2002 0 45.7998 -16 45.7998 -35.5s-20.5996 -35.5 -45.7998 -35.5h-411.9zM461.5 227.5c25.2998 0 45.7998 -16 45.7998 -35.5s-20.5996 -35.5 -45.7998 -35.5h-411.9
c-25.0996 0 -45.7998 16 -45.7998 35.5s20.7002 35.5 45.7998 35.5h411.9zM461.5 59.2002c25.2998 0 45.7998 -16 45.7998 -35.5s-20.5996 -35.5 -45.7998 -35.5h-411.9c-25.0996 0 -45.7998 16 -45.7998 35.5s20.7002 35.5 45.7998 35.5h411.9z" />
    <glyph glyph-name="uniF13C" unicode="&#xf13c;" 
d="M272 448l240 -240l-48 -48l-48 48l-128 -112v-112l-88 88l-180.3 -136h-19.7002v19.7002l136 180.3l-88 88h112l112 128l-48 48zM224 176l112 112l-32 32l-112 -112z" />
    <glyph glyph-name="uniF12F" unicode="&#xf12f;" 
d="M447.2 193.2v-223c0 -17.7002 -14.2002 -31.9004 -31.9004 -31.9004h-318.5c-17.7002 0 -31.8994 14.2002 -31.8994 31.9004v223c0 17.7002 14.1992 31.8994 31.8994 31.8994h31.7998v95.5c0 70.2002 57.3008 127.4 127.5 127.4c70.2002 0 127.4 -57.2002 127.4 -127.4
v-95.5996h31.7998c17.7002 0 31.9004 -14.0996 31.9004 -31.7998zM192.4 225h127.399v95.5c0 35.4004 -28.2998 63.7002 -63.7002 63.7002c-35.3994 0 -63.6992 -28.2998 -63.6992 -63.7002v-95.5z" />
    <glyph glyph-name="uniF146" unicode="&#xf146;" 
d="M402.7 104.7c46 0 83.3994 -37.4004 83.3994 -83.5c0 -46.1006 -37.2998 -83.4004 -83.3994 -83.4004c-46.1006 0 -83.4004 37.4004 -83.4004 83.4004c0 5.59961 0.600586 11 1.60059 16.2002l-154.801 90.3994c-15.0996 -14.7002 -35.5996 -23.7998 -58.2998 -23.7998
c-46.0996 0 -83.3994 37.2998 -83.3994 83.4004c0 46.0996 37.3994 83.3994 83.3994 83.3994c24 0 45.6006 -10.0996 60.7998 -26.2998l155.9 91.0996c-3.40039 9 -5.2002 18.8008 -5.2002 29c0 46.1006 37.4004 83.4004 83.4004 83.4004s83.5 -37.2002 83.5 -83.2998
c0 -46.1006 -37.4004 -83.4004 -83.4004 -83.4004c-24.5996 0 -46.7002 10.7002 -62 27.6006l-155.399 -90.8008c3.69922 -9.5 5.7998 -19.7998 5.7998 -30.5996c0 -12 -2.60059 -23.5 -7.2002 -33.7998l148.8 -86.9004c14.9004 22.7998 40.6006 37.9004 69.9004 37.9004z
" />
    <glyph glyph-name="uniF155" unicode="&#xf155;" 
d="M152 339.5c0 11.7998 -4.2002 21.9004 -12.5 30.2998c-8.40039 8.40039 -18.5 12.5 -30.2998 12.5s-21.9004 -4.2002 -30.2998 -12.5c-8.40039 -8.2998 -12.5 -18.5 -12.5 -30.2998s4.19922 -21.9004 12.5 -30.2998c8.2998 -8.40039 18.5 -12.5 30.2998 -12.5
s21.8994 4.2002 30.2998 12.5s12.5 18.5 12.5 30.2998zM508.9 146.9c0 -11.8008 -4.10059 -21.9004 -12.4004 -30.1006l-164.2 -164.6c-8.7002 -8.2002 -18.7998 -12.4004 -30.5 -12.4004c-11.7998 0 -21.8994 4.10059 -30.0996 12.4004l-239.101 239.5
c-8.5 8.2002 -15.6992 19.5 -21.5996 33.7998s-8.7998 27.2998 -8.7998 39.0996v139.2c0 11.6006 4.2002 21.6006 12.7002 30.1006s18.5 12.6992 30.0996 12.6992h139.2c11.7998 0 24.7998 -3 39.0996 -8.7998c14.2998 -5.89941 25.6006 -13.0996 34.1006 -21.5996
l239.1 -238.8c8.2002 -8.80078 12.4004 -18.9004 12.4004 -30.5z" />
    <glyph glyph-name="uniF153" unicode="&#xf153;" 
d="M255.857 68.9521l0.0107422 0.00585938v295.835l-0.0107422 70.957l0.0107422 0.00585938c6.1377 0 11.1553 -4.18848 15.0527 -12.5889l69.1045 -139.775l154.223 -22.4219c11.4688 -1.83691 17.2031 -6.5625 17.2031 -14.1338
c0 -4.30078 -2.55371 -9.20605 -7.68359 -14.7393l-111.819 -108.752l26.4316 -153.596c0.40332 -2.86719 0.605469 -4.92773 0.605469 -6.16016c0 -4.30078 -1.0752 -7.92969 -3.22656 -10.8857c-2.14941 -2.97949 -5.37598 -4.45801 -9.67676 -4.45801
c-3.69629 0 -7.77344 1.23145 -12.2979 3.67383l-137.916 72.5078l-0.0107422 -0.00585938v44.5312z" />
    <glyph glyph-name="uniF14D" unicode="&#xf14d;" 
d="M256.5 7.7998c-14.5 0 -29 1.2002 -42.4004 2.90039c-26.0996 -26.1006 -74.8994 -65.6006 -135.199 -65.6006c-4.10059 0 -8.10059 2.30078 -9.90039 6.40039c-1.2002 4.09961 -0.599609 8.7002 2.2998 11.5996c0.600586 0.600586 30.7998 31.3008 37.7002 83.6006
c-62.5996 37.2002 -103.2 96.8994 -103.2 164.899c0 112.601 112 203.7 250.8 203.7c138.801 0 250.801 -91.0996 250.801 -203.7c0 -112.6 -112.101 -203.8 -250.9 -203.8z" />
    <glyph glyph-name="uniF11F" unicode="&#xf11f;" 
d="M476.868 447.801h34.6328v-471.08h-34.6328v49.5029h-54.8926v-49.5029h-34.7314v71.46h-262.688v-71.46h-34.6318v49.5029h-54.6934v-49.5029h-34.7324v471.08h34.7324v-49.0049h54.6934v49.0049h34.6318v-71.96h262.688v71.96h34.7314v-49.0049h54.8926v49.0049z
M89.9248 52.7715v49.5039h-54.6934v-49.5039h54.6934zM89.9248 135.71v49.0039h-54.6934v-49.0039h54.6934zM89.9248 226.932v49.0049h-54.6934v-49.0049h54.6934zM89.9248 319.052v49.0039h-54.6934v-49.0039h54.6934zM124.557 102.275h262.688v216.776h-262.688v-216.776z
M476.868 52.7715v49.5039h-54.8926v-49.5039h54.8926zM476.868 135.71v49.0039h-54.8926v-49.0039h54.8926zM476.868 226.932v49.0049h-54.8926v-49.0049h54.8926zM476.868 319.052v49.0039h-54.8926v-49.0039h54.8926z" />
    <glyph glyph-name="uniF13F" unicode="&#xf13f;" 
d="M463.872 229.376h-75.2637l-16.8965 -136.704h58.3682v-135.68h-135.68v62.9756l-157.185 -6.65625v-71.168h-135.68v135.681h78.3359l34.3037 227.84h-57.8555v135.68h135.168v-86.0156l136.704 -37.376v47.1035h135.68v-135.68zM102.912 -23.04v67.0723h-67.0723
v-67.0723h67.0723zM157.696 339.968v67.0723h-67.0723v-67.0723h67.0723zM395.776 58.3682h-67.0723v-67.0723h67.0723v67.0723zM363.52 263.68h67.0723v67.0723h-67.0723v-67.0723z" />
    <glyph glyph-name="uniF161" unicode="&#xf161;" 
d="M340.4 28.5v33.7002l111.399 -64.2998l-111.399 -64.3008v33.7002h-11c-80.1006 0 -116.9 74 -149.9 139.5c-32.5 65.5 -55.7002 105.3 -94.9004 105.3h-8c-11 -18.3994 -30.5996 -30.5996 -53.1992 -30.5996c-33.7002 0 -61.2002 27.5 -61.2002 61.2002
s27.5 61.2002 61.2002 61.2002c22.5996 0 42.7998 -12.2002 53.1992 -30.6006h8c80.1006 0 116.9 -74 149.9 -139.5c32.5 -65.5 55.7002 -105.3 94.9004 -105.3h11zM23.4004 206c20.1992 0 36.6992 16.5 36.6992 36.7002s-16.5 36.7002 -36.6992 36.7002
c-20.2002 0 -36.7002 -16.5 -36.7002 -36.7002s16.5 -36.7002 36.7002 -36.7002zM204.6 212.1c-17.1992 25.7002 -38.5996 48.4004 -65.5 61.2002h201.301v33.7002l111.5 -64.2998l-111.4 -64.2998v33.6992h-135.9z" />
    <glyph glyph-name="uniF115" unicode="&#xf115;" 
d="M307.8 445.3l142.3 -147.6v-359.2h-390.399v506.8h248.1zM314.5 379.2v-69.5h67zM100.8 -20.4004h308.2v299.2h-125.3v125.4h-182.9v-424.601z" />
    </font>
</defs>
</svg>
